<?xml version="1.0" standalone="no"?>
<!DOCTYPE svg PUBLIC "-//W3C//DTD SVG 1.1//EN" "http://www.w3.org/Graphics/SVG/1.1/DTD/svg11.dtd" >
<svg xmlns="http://www.w3.org/2000/svg" xmlns:xlink="http://www.w3.org/1999/xlink" version="1.1">
<metadata></metadata>
<defs>
<font id="robotomedium_italic" horiz-adv-x="0" >
<font-face units-per-em="2048" ascent="1536" descent="-512" />
<missing-glyph horiz-adv-x="505" />
<glyph unicode="fi" horiz-adv-x="1166" d="M79 0l156 902h-160l32 180l152 -1l14 81q35 190 161 295t321 101q78 -1 152.5 -20t148.5 -42l-57 -200q-126 51 -238 51q-212 2 -252 -200l-13 -66l215 1l-32 -180h-206l-157 -902h-237zM913 0h-238l188 1082h237z" />
<glyph unicode="fl" horiz-adv-x="1186" d="M927 1346q-109 16 -162 15q-93 0 -153 -47.5t-75 -141.5l-14 -90h215l-32 -180h-213l-157 -902h-237l157 902h-161l32 180l159 1l14 101q26 182 145.5 279.5t306.5 95.5q109 -2 218 -18l218 -32l-255 -1509h-236z" />
<glyph unicode="ffi" horiz-adv-x="1782" d="M99 0l157 902h-161l32 180h160l13 96q25 183 136.5 283.5t285.5 98.5q60 -2 140 -20l-26 -190q-44 10 -89 10q-85 1 -139 -46t-69 -130l-15 -102l352 -1l17 97q38 182 162 282.5t316 98.5q78 -2 153 -21t149 -42l-58 -200q-122 49 -238 51q-211 2 -251 -200l-13 -66 l215 1l-32 -180h-206l-157 -902h-237l156 902h-359l-157 -902h-237zM1529 0h-237l188 1082h237z" />
<glyph unicode="ffl" horiz-adv-x="1782" d="M99 0l157 902h-161l32 180h160l13 95q25 184 138 285t286 97q50 -1 138 -19l-26 -190q-55 10 -88 10q-85 1 -139 -46.5t-69 -129.5l-16 -102l359 1l13 101q26 182 145.5 279.5t306.5 95.5q102 -1 202 -15l235 -35l-256 -1509h-237l237 1345q-134 16 -167 16 q-91 0 -151.5 -46t-76.5 -137l-14 -96h214l-31 -180h-213l-157 -902h-237l156 902h-359l-157 -902h-237z" />
<glyph />
<glyph unicode="&#x9;" horiz-adv-x="505" />
<glyph unicode=" "  horiz-adv-x="505" />
<glyph unicode="&#x09;" horiz-adv-x="505" />
<glyph unicode="&#xa0;" horiz-adv-x="505" />
<glyph unicode="!" horiz-adv-x="543" d="M342 429h-204l156 1027h250zM55 111q0 59 37.5 97t95.5 40q57 2 96 -35t39 -94t-37.5 -94.5t-95.5 -39.5q-55 -2 -95 33.5t-40 92.5z" />
<glyph unicode="&#x22;" horiz-adv-x="654" d="M391 1388l-92 -376h-138l83 524h170zM683 1388l-92 -376h-138l83 524h170z" />
<glyph unicode="#" horiz-adv-x="1223" d="M662 410h-211l-145 -410h-170l145 410h-222l28 158h250l111 313h-233l28 159h261l149 416h169l-149 -416h212l148 416h169l-148 -416h199l-28 -159h-228l-110 -313h212l-28 -158h-241l-145 -410h-169zM507 568h211l111 313h-211z" />
<glyph unicode="$" horiz-adv-x="1139" d="M766 387q9 76 -31.5 132.5t-158 105.5t-189.5 104q-170 129 -156 336q11 170 125 278.5t294 129.5l40 218h157l-41 -222q148 -31 223.5 -152t65.5 -312h-236q9 127 -33.5 197.5t-129.5 73.5q-92 2 -154.5 -54t-75.5 -154q-9 -76 31 -130t156 -105t179 -96 q184 -130 169 -348q-11 -173 -129.5 -279.5t-306.5 -125.5l-36 -195h-156l37 196q-168 26 -256 147t-79 312l237 -1q-7 -127 44 -194.5t149 -69.5q105 -2 177.5 55.5t83.5 152.5z" />
<glyph unicode="%" horiz-adv-x="1469" d="M527 1478q131 -4 204 -89t65 -213l-6 -77q-15 -137 -107.5 -220t-222.5 -79q-126 2 -202.5 87t-68.5 212l7 74q13 137 104.5 222t226.5 83zM356 1097q-7 -64 21 -107.5t86 -45.5q60 -2 104 41.5t55 113.5l9 78q7 65 -21 109t-87 46q-61 2 -106 -44.5t-53 -120.5z M1065 657q130 -4 203.5 -89t65.5 -211l-6 -78q-14 -135 -107 -219.5t-223 -80.5q-124 2 -201 85t-71 215l5 65q11 142 103.5 228.5t230.5 84.5zM893 277q-5 -69 24 -110.5t84 -43.5q61 -2 103.5 39.5t54.5 116.5l10 79q5 72 -24 112t-84 42q-64 2 -108 -44.5t-52 -118.5z M374 111l-120 79l879 1127l120 -79z" />
<glyph unicode="&#x26;" horiz-adv-x="1280" d="M56 385q12 182 210 322l114 75q-61 112 -81 182.5t-16 133.5q12 170 126 276t286 102q93 -3 168 -44t115 -113.5t35 -159.5q-5 -90 -57.5 -168.5t-170.5 -160.5l-121 -80l214 -324q83 124 104 268l203 1q-24 -272 -184 -445l161 -250h-258l-61 95q-176 -118 -375 -114 q-187 2 -305 113t-107 291zM484 175q68 -1 128 25t116 61l-243 369l-34 -22q-137 -96 -154 -215q-12 -96 40 -156t147 -62zM501 1105q-10 -69 38 -161l23 -42l99 62q129 82 141 188q6 57 -30 93.5t-91 36.5q-72 0 -122 -52.5t-58 -124.5z" />
<glyph unicode="'" horiz-adv-x="346" d="M385 1399l-84 -379h-157l81 516h181z" />
<glyph unicode="(" horiz-adv-x="703" d="M128 588q53 365 220.5 649.5t415.5 394.5l36 -144q-342 -264 -444 -828q-37 -206 -38 -397q-2 -203 48 -354.5t148 -238.5l-56 -133q-171 106 -262.5 330t-83.5 522q2 96 14 182z" />
<glyph unicode=")" horiz-adv-x="710" d="M-71 -465l-37 138q212 165 332 444.5t146 662.5l4 124q0 421 -196 593l57 134q115 -70 196.5 -196.5t121 -300.5t35.5 -355q-9 -279 -98.5 -540.5t-234.5 -442t-326 -261.5z" />
<glyph unicode="*" horiz-adv-x="888" d="M383 977l-280 88l79 161l279 -119l45 349h176l-75 -344l302 112l24 -180l-319 -88l151 -271l-149 -98l-124 289l-220 -276l-134 110z" />
<glyph unicode="+" horiz-adv-x="1117" d="M701 801h369l-39 -222h-368l-75 -433h-231l76 433h-372l40 222h370l70 405h231z" />
<glyph unicode="," horiz-adv-x="447" d="M8 -328l-127 80q118 158 145 277l37 206h213l-26 -161q-40 -247 -242 -402z" />
<glyph unicode="-" horiz-adv-x="662" d="M565 521h-511l35 196h511z" />
<glyph unicode="." horiz-adv-x="565" d="M48 117q0 61 38.5 99.5t98.5 40.5q59 2 98.5 -35.5t39.5 -96.5q0 -58 -38 -96.5t-99 -40.5q-59 -2 -98.5 35t-39.5 94z" />
<glyph unicode="/" horiz-adv-x="796" d="M67 -125h-196l830 1581h197z" />
<glyph unicode="0" horiz-adv-x="1139" d="M479 -20q-189 4 -286 130.5t-94 354.5q1 74 10 148l39 260q49 306 189 457t362 146q188 -4 285.5 -128t94.5 -352q-1 -75 -10 -148l-39 -253q-51 -313 -189.5 -466.5t-361.5 -148.5zM838 887q13 114 13 162q-5 226 -165 233q-122 5 -196 -89t-104 -299l-46 -317 q-12 -103 -11 -163q0 -234 164 -241q226 -13 291 353z" />
<glyph unicode="1" horiz-adv-x="1139" d="M641 0h-236l202 1164l-368 -122l37 215l576 204h36z" />
<glyph unicode="2" horiz-adv-x="1139" d="M962 0h-951l28 177l605 581q169 165 186 299q13 95 -32 158.5t-135 67.5q-111 4 -187 -69.5t-92 -200.5l-236 -1q10 134 81.5 241t190 166.5t256.5 56.5q190 -4 300.5 -110t97.5 -284q-17 -204 -245 -431l-62 -61l-421 -396h647z" />
<glyph unicode="3" horiz-adv-x="1139" d="M416 839l129 -1q117 0 195 63t89 168q11 99 -36 155.5t-140 58.5q-94 2 -163 -55t-83 -150l-237 -1q9 117 77 209t177.5 141.5t236.5 48.5q195 -4 307.5 -113.5t99.5 -293.5q-7 -100 -74 -183.5t-194 -143.5q173 -80 184 -278v-48q-13 -196 -160.5 -318t-361.5 -118 q-123 1 -221 52.5t-150.5 145t-48.5 213.5l236 -1q-4 -96 47.5 -154.5t150.5 -61.5q109 -4 185.5 64t88.5 178q12 111 -45.5 169t-165.5 61l-153 1z" />
<glyph unicode="4" horiz-adv-x="1139" d="M890 519h176l-34 -195h-175l-57 -324h-237l56 324h-610l21 160l770 972h253zM292 519h361l113 611l-24 -34z" />
<glyph unicode="5" horiz-adv-x="1139" d="M186 725l191 731h762l-33 -210h-561l-103 -349q102 58 222 58q185 -2 284.5 -136t81.5 -347q-18 -219 -164 -358t-361 -135q-182 4 -295.5 117t-119.5 298h227q7 -102 57.5 -159.5t141.5 -59.5q111 -3 186.5 81t90.5 224q12 124 -41 200.5t-158 78.5q-64 2 -114.5 -20.5 t-98.5 -62.5z" />
<glyph unicode="6" horiz-adv-x="1139" d="M972 1464l-20 -202l-13 1q-192 2 -333 -103.5t-221 -319.5q132 128 301 124q117 -2 199 -65.5t120 -174t26 -240.5q-12 -142 -83 -260.5t-185.5 -183t-250.5 -61.5q-173 4 -281 123t-123 313q-9 107 23 286q65 357 277.5 560t540.5 203h23zM617 769q-80 2 -150 -42.5 t-118 -126.5q-11 -101 -10 -144q0 -128 47 -203t135 -77q108 -3 183.5 81t90.5 220q13 127 -35 208t-143 84z" />
<glyph unicode="7" horiz-adv-x="1139" d="M1157 1309l-764 -1309h-259l761 1261h-726l31 195h980z" />
<glyph unicode="8" horiz-adv-x="1139" d="M1084 1080q-18 -217 -256 -336q89 -57 132.5 -145t35.5 -194q-13 -192 -157 -310.5t-357 -114.5q-194 4 -308.5 115.5t-101.5 292.5q18 243 291 368q-75 54 -111 134.5t-30 172.5q14 188 148 302.5t333 110.5q119 -3 209.5 -53t135.5 -140t36 -203zM762 417 q11 101 -39 166.5t-144 67.5q-106 2 -181 -69.5t-87 -180.5q-11 -103 40 -164.5t144 -63.5q108 -2 181.5 67t85.5 177zM846 1072q9 90 -33.5 149t-125.5 61q-91 2 -155.5 -62t-75.5 -166q-9 -94 34 -151t124 -59q92 -2 156.5 63t75.5 165z" />
<glyph unicode="9" horiz-adv-x="1139" d="M247 194q212 -2 345 102.5t199 313.5q-136 -132 -288 -130q-113 2 -196 61.5t-124 171.5t-29 248q13 145 84.5 266t185.5 187t249 62q117 -3 203.5 -59.5t134.5 -161t55 -233.5q5 -107 -23 -267q-64 -370 -274 -566t-534 -196h-22l19 202zM562 669q74 -2 140 40.5 t114 117.5l13 97l4 70q3 130 -41 206.5t-132 80.5q-125 4 -205 -120t-65 -292q7 -89 52 -143t120 -57z" />
<glyph unicode=":" horiz-adv-x="537" d="M43 117q0 61 38.5 99.5t98.5 40.5q59 2 98.5 -35.5t39.5 -96.5q0 -58 -38 -96.5t-99 -40.5q-59 -2 -98.5 35t-39.5 94zM189 966q0 61 38.5 99.5t98.5 40.5q59 2 98.5 -35.5t39.5 -96.5q0 -58 -38 -96.5t-99 -40.5q-59 -2 -98.5 35t-39.5 94z" />
<glyph unicode=";" horiz-adv-x="482" d="M169 966q0 61 38.5 99.5t98.5 40.5q59 2 98.5 -35.5t39.5 -96.5q0 -58 -38 -96.5t-99 -40.5q-59 -2 -98.5 35t-39.5 94zM25 -328l-127 80q118 158 145 277l37 206h213l-26 -161q-40 -247 -242 -402z" />
<glyph unicode="&#x3c;" horiz-adv-x="1020" d="M306 626l534 -224l-41 -232l-749 373l34 193l879 372l-45 -254z" />
<glyph unicode="=" horiz-adv-x="1122" d="M1009 780h-838l36 202h837zM935 356h-837l35 201h838z" />
<glyph unicode="&#x3e;" horiz-adv-x="1044" d="M731 641l-561 227l40 229l775 -373l-34 -193l-904 -372l44 250z" />
<glyph unicode="?" horiz-adv-x="976" d="M319 427q12 125 58.5 213t148 174t132.5 122q94 108 76 226q-8 52 -44 82.5t-93 31.5q-82 2 -138.5 -47.5t-73.5 -134.5l-236 -1q17 178 145 283t318 101q177 -4 278 -107t87 -273q-15 -177 -204 -340l-122 -102q-94 -86 -114 -227zM239 113q0 59 37.5 97t95.5 40 q56 2 95 -35t39 -94q0 -61 -39.5 -97.5t-93.5 -36.5q-56 -2 -95 33.5t-39 92.5z" />
<glyph unicode="@" horiz-adv-x="1787" d="M1190 -21q-77 2 -136 39t-79 115q-131 -156 -270 -153q-114 2 -175 92.5t-52 250.5q7 161 86.5 328.5t192.5 254.5t245 85q85 -2 151.5 -30.5t133.5 -76.5l-134 -567l-8 -60q-7 -63 13 -99.5t67 -38.5q89 -4 157.5 68t111.5 209.5t50 309.5q4 134 -25.5 241t-89.5 178 q-125 146 -367 150q-167 3 -314 -69.5t-264.5 -217t-184 -331t-73.5 -376.5q-8 -173 44.5 -307t162 -203.5t268.5 -70.5q166 -2 339 73l27 -140q-138 -86 -367 -86q-195 1 -340.5 83t-223.5 238t-82 367q-4 221 75 445t223 397t327.5 261.5t384.5 85.5q192 -3 333 -84 t218 -236.5t81 -355.5q4 -211 -60.5 -394t-180 -281t-265.5 -94zM671 307q-5 -162 101 -165q56 -3 115.5 50.5t88.5 129.5l129 497q-45 17 -86 19q-130 5 -218.5 -120.5t-124.5 -354.5z" />
<glyph unicode="A" horiz-adv-x="1332" d="M893 339h-545l-174 -339h-266l786 1456h222l282 -1456h-248zM452 543h408l-99 602z" />
<glyph unicode="B" horiz-adv-x="1263" d="M39 0l253 1456l447 -1q236 -1 354.5 -102.5t104.5 -281.5q-18 -212 -259 -319q90 -32 139 -117t42 -203q-14 -200 -160.5 -316t-386.5 -116h-534zM400 657l-79 -455l259 -1q117 0 199 62t97 170q14 103 -31 161t-149 62zM432 843l227 -1q122 0 199 58t91 157 q25 187 -189 194l-257 1z" />
<glyph unicode="C" horiz-adv-x="1307" d="M1194 475q-37 -228 -205 -363.5t-409 -131.5q-139 3 -243.5 66t-163.5 183.5t-66 272.5q-6 114 28 310.5t130.5 352.5t237 235t312.5 76q217 -4 343.5 -136.5t134.5 -365.5h-245q-5 156 -65.5 225.5t-179.5 72.5q-163 5 -273 -117t-148 -355l-20 -133l-9 -102 q-8 -103 14.5 -193.5t79.5 -138t145 -50.5q279 -11 358 290z" />
<glyph unicode="D" horiz-adv-x="1308" d="M39 0l252 1456l394 -1q182 0 313.5 -90.5t190.5 -250t36 -351.5l-11 -79q-30 -201 -132.5 -356.5t-264.5 -241.5t-356 -86h-422zM503 1252l-182 -1050l146 -1q198 0 328.5 125.5t167.5 346.5q26 152 19 265q-9 145 -84.5 227t-209.5 86z" />
<glyph unicode="E" horiz-adv-x="1133" d="M979 650h-580l-78 -448h678l-35 -202h-925l252 1456h919l-36 -204h-671l-70 -402h581z" />
<glyph unicode="F" horiz-adv-x="1101" d="M961 617h-568l-107 -617h-247l252 1456h900l-36 -204h-652l-75 -433h569z" />
<glyph unicode="G" horiz-adv-x="1362" d="M1168 189q-80 -104 -226 -157.5t-326 -51.5q-144 1 -254 64.5t-174.5 185t-73.5 276.5q-7 120 25 306t114.5 330.5t200.5 226.5q160 111 366 107q219 -4 342.5 -126t139.5 -342l-239 1q-22 257 -249 264q-170 5 -279.5 -119.5t-149.5 -359.5q-23 -137 -25 -224 q-6 -179 65.5 -282t208.5 -105q175 -4 288 87l54 285h-292l34 192h535z" />
<glyph unicode="H" horiz-adv-x="1421" d="M1162 0h-246l112 647h-630l-112 -647h-247l253 1456h247l-106 -606h630l105 606h247z" />
<glyph unicode="I" horiz-adv-x="571" d="M299 0h-246l253 1456h246z" />
<glyph unicode="J" horiz-adv-x="1113" d="M875 1456h246l-174 -1021q-31 -212 -173.5 -336t-351.5 -120q-204 4 -311.5 121t-97.5 316l246 -1q-14 -229 178 -233q100 -4 171.5 63t92.5 189z" />
<glyph unicode="K" horiz-adv-x="1262" d="M563 627l-200 -183l-77 -444h-247l253 1456h247l-117 -669l153 159l502 510h316l-648 -657l409 -799h-276z" />
<glyph unicode="L" horiz-adv-x="1085" d="M321 202h642l-36 -202h-888l253 1456h247z" />
<glyph unicode="M" horiz-adv-x="1749" d="M606 1456l213 -1114l599 1114h324l-252 -1456h-246l85 493l129 607l-600 -1100h-178l-223 1133l-91 -666l-81 -467h-246l253 1456h314z" />
<glyph unicode="N" horiz-adv-x="1420" d="M1161 0h-239l-455 1043l-181 -1043h-247l253 1456h239l455 -1047l182 1047h246z" />
<glyph unicode="O" horiz-adv-x="1382" d="M599 -20q-142 3 -249.5 68t-167.5 188.5t-68 280.5q-7 125 22.5 292t105 304.5t180.5 224.5q173 142 400 138q216 -4 344.5 -149t140.5 -392q6 -124 -22.5 -284.5t-98 -295t-172.5 -224.5q-178 -156 -415 -151zM1054 767l9 106q6 109 -19 201.5t-84.5 141t-150.5 51.5 q-126 4 -223.5 -71t-158 -228t-70.5 -384q-10 -183 56 -288t198 -109q173 -5 285.5 130t147.5 380z" />
<glyph unicode="P" horiz-adv-x="1280" d="M380 541l-94 -541h-247l253 1456l504 -1q228 0 358 -124.5t113 -329.5q-18 -212 -173 -336.5t-406 -124.5zM415 744l283 -2q134 0 219.5 68t102.5 190q14 111 -41.5 178.5t-167.5 72.5l-308 1z" />
<glyph unicode="Q" horiz-adv-x="1382" d="M939 86l208 -200l-174 -138l-256 244q-80 -12 -127 -11q-213 2 -342.5 148t-141.5 392q-6 125 23.5 289.5t108 307.5t193.5 232q168 130 384 126q144 -3 251 -68t168 -190.5t68 -281.5q4 -86 -6 -172l-12 -87q-62 -402 -345 -591zM1049 768l9 106q6 110 -19.5 202 t-85.5 140t-151 51q-196 6 -316.5 -174.5t-134.5 -508.5q-6 -111 20 -204t85.5 -141.5t148.5 -51.5q165 -7 278 121t153 371z" />
<glyph unicode="R" horiz-adv-x="1250" d="M662 561h-278l-98 -561h-247l253 1456l459 -1q237 0 363 -114t109 -317q-11 -141 -94 -244.5t-233 -162.5l215 -602l-1 -15h-262zM418 764l239 -2q129 0 215.5 67.5t101.5 183.5q15 113 -40 173.5t-167 64.5l-264 1z" />
<glyph unicode="S" horiz-adv-x="1209" d="M844 382q22 144 -157 214l-81 30q-226 79 -321 187t-86 251q8 124 84.5 218.5t201.5 145.5t266 48q136 -3 242 -59.5t162 -157t52 -229.5l-246 1q7 114 -50.5 177t-173.5 66q-117 2 -197.5 -55t-94.5 -154q-20 -127 170 -200l75 -27q229 -82 320 -192.5t80 -261.5 q-10 -123 -81 -214.5t-196.5 -141.5t-276.5 -48q-143 1 -259.5 60t-178.5 163.5t-57 237.5l247 -1q-8 -124 61 -191t198 -69q120 -2 200.5 51t96.5 151z" />
<glyph unicode="T" horiz-adv-x="1216" d="M1278 1252h-440l-217 -1252h-246l218 1252h-437l36 204h1122z" />
<glyph unicode="U" horiz-adv-x="1305" d="M1327 1456l-165 -973q-34 -233 -199.5 -371t-400.5 -134q-218 4 -344.5 132t-115.5 334l3 38l165 974h246l-165 -975q-18 -139 41 -217t182 -82q135 -4 225 73t115 221l167 980h246z" />
<glyph unicode="V" horiz-adv-x="1295" d="M593 319l536 1137h280l-736 -1456h-239l-279 1456h262z" />
<glyph unicode="W" horiz-adv-x="1758" d="M1211 362l388 1094h251l-554 -1456h-236l-101 1060l-440 -1060h-238l-98 1456h239l48 -1089l439 1089h207z" />
<glyph unicode="X" horiz-adv-x="1267" d="M675 931l378 525h298l-549 -733l318 -723h-274l-220 533l-388 -533h-299l561 745l-311 711h272z" />
<glyph unicode="Y" horiz-adv-x="1221" d="M627 768l444 688h286l-642 -933l-91 -523h-248l96 549l-311 907h261z" />
<glyph unicode="Z" horiz-adv-x="1206" d="M314 202h748l-36 -202h-1053l31 176l909 1076h-718l36 204h1024l-30 -172z" />
<glyph unicode="[" horiz-adv-x="554" d="M663 1488h-159l-254 -1623h160l-30 -189h-397l313 2002h397z" />
<glyph unicode="\" horiz-adv-x="840" d="M172 1456h224l316 -1581h-224z" />
<glyph unicode="]" horiz-adv-x="554" d="M180 1678h399l-313 -2002h-400l30 189h162l254 1623h-163z" />
<glyph unicode="^" horiz-adv-x="859" d="M532 1188l-253 -459h-211l416 727h167l163 -727h-189z" />
<glyph unicode="_" horiz-adv-x="906" d="M756 -191h-891l34 191h891z" />
<glyph unicode="`" horiz-adv-x="650" d="M598 1233h-181l-215 303h254z" />
<glyph unicode="a" horiz-adv-x="1085" d="M659 0q-12 40 -10 101q-134 -125 -289 -121q-141 2 -233.5 90.5t-86.5 224.5q8 171 148 269t376 98l154 -2l14 74q6 39 0 73q-20 108 -143 111q-76 2 -133.5 -38.5t-70.5 -108.5l-237 -2q7 100 71 175.5t170 117.5t224 40q177 -4 276 -106.5t82 -265.5l-83 -507l-8 -90 q-3 -59 15 -115l-1 -18h-235zM415 174q75 -2 139 34.5t109 94.5l37 205l-113 1q-134 0 -214 -50.5t-91 -138.5q-8 -67 29.5 -105.5t103.5 -40.5z" />
<glyph unicode="b" horiz-adv-x="1128" d="M1031 536q-20 -165 -88.5 -298.5t-170 -197.5t-228.5 -61q-181 4 -273 139l-38 -118h-217l266 1536h238l-108 -559q121 129 287 125q157 -4 245.5 -115t93.5 -304q1 -60 -7 -147zM803 670q0 109 -45 170.5t-130 63.5q-143 4 -242 -138l-78 -448q44 -136 189 -141 q120 -3 197.5 92t99.5 268q8 85 9 133z" />
<glyph unicode="c" horiz-adv-x="1050" d="M488 173q85 -2 150.5 49.5t83.5 134.5l224 1q-11 -107 -77.5 -195t-170.5 -137t-217 -46q-139 2 -237 72t-143 193.5t-30 275.5l3 35q17 157 91.5 284.5t192.5 196.5t262 65q176 -4 281 -116.5t105 -292.5h-222q0 93 -45.5 152t-131.5 63q-139 4 -219 -118t-86 -344 q-7 -269 186 -273z" />
<glyph unicode="d" horiz-adv-x="1131" d="M68 542q20 167 90 300t173 198.5t229 62.5q165 -4 258 -123l104 556h238l-267 -1536h-212l16 112q-126 -137 -296 -133q-151 2 -241.5 116.5t-97.5 304.5q-3 62 3 121zM298 449q-7 -124 38.5 -197t135.5 -75q137 -4 237 133l81 465q-47 125 -182 129q-136 4 -219 -120 t-91 -335z" />
<glyph unicode="e" horiz-adv-x="1076" d="M506 -20q-141 3 -244.5 71t-153 186t-37.5 263l3 41q18 165 96.5 296.5t195.5 199.5t254 65q203 -4 304.5 -151t76.5 -383l-14 -104h-681q-9 -129 52 -208t168 -81q153 -5 282 133l120 -126q-68 -97 -179 -150.5t-243 -51.5zM607 908q-188 6 -282 -266l449 -1l4 21 q7 46 1 90q-11 71 -56 112t-116 44z" />
<glyph unicode="f" horiz-adv-x="714" d="M99 0l157 902h-161l32 180h160l16 116q26 168 135.5 266t282.5 96q61 -2 141 -20l-26 -190q-44 10 -89 10q-85 1 -139 -46t-69 -130l-15 -102h214l-32 -180h-213l-157 -902h-237z" />
<glyph unicode="g" horiz-adv-x="1136" d="M70 542q19 162 87.5 293t172.5 200.5t238 67.5q178 -4 269 -131l37 111l216 -1l-179 -1052q-30 -212 -178.5 -337.5t-361.5 -119.5q-114 2 -216 52t-164 132l126 143q95 -131 248 -135q116 -4 199.5 63.5t111.5 192.5l17 76q-125 -121 -284 -117q-152 2 -243.5 115 t-100.5 304q-3 60 5 143zM305 521q-6 -51 -4 -110q2 -106 48 -168t131 -65q135 -5 236 125l85 478q-52 119 -185 123q-120 3 -202 -93t-107 -269z" />
<glyph unicode="h" horiz-adv-x="1113" d="M407 963q135 142 307 138q154 -2 228.5 -109t55.5 -296l-116 -696h-237l118 699q5 43 2 80q-13 122 -144 125q-132 2 -236 -130l-135 -774h-237l266 1536h238z" />
<glyph unicode="i" horiz-adv-x="517" d="M268 0h-237l188 1082h237zM253 1359q0 55 36 94t97 41q58 2 96.5 -35.5t38.5 -91.5q0 -57 -37.5 -94t-95.5 -39q-57 -2 -96 34.5t-39 90.5z" />
<glyph unicode="j" horiz-adv-x="508" d="M451 1082l-199 -1177q-22 -168 -116 -257.5t-245 -87.5q-64 2 -135 19l20 192q46 -11 84 -11q127 0 153 149l201 1173h237zM243 1359q0 58 36 95.5t96 39.5q58 2 96.5 -34.5t38.5 -92.5q0 -57 -37.5 -94t-95.5 -39q-60 0 -97 35.5t-37 89.5z" />
<glyph unicode="k" horiz-adv-x="1047" d="M447 462l-134 -119l-59 -343h-237l266 1536h237l-152 -872l83 86l344 332h303l-480 -462l316 -620h-257z" />
<glyph unicode="l" horiz-adv-x="517" d="M268 0h-237l267 1536h237z" />
<glyph unicode="m" horiz-adv-x="1739" d="M425 1083l-21 -115q134 138 320 134q102 -2 169.5 -47t91.5 -119q150 170 344 166q158 -4 234.5 -108.5t57.5 -292.5l-117 -701h-237l118 703q5 44 1 81q-16 117 -148 120q-147 4 -232 -161l-3 -22l-124 -721h-238l118 700q5 43 1 80q-16 121 -148 124q-133 2 -222 -119 l-137 -785h-237l187 1082z" />
<glyph unicode="n" horiz-adv-x="1115" d="M423 1083l-24 -127q139 150 321 146q152 -3 225 -108.5t54 -294.5l-117 -699h-237l118 702q5 43 1 80q-13 119 -142 122q-135 2 -237 -133l-135 -771h-237l187 1082z" />
<glyph unicode="o" horiz-adv-x="1141" d="M73 545q17 159 93.5 289t196.5 201t266 67q139 -2 240 -74t147.5 -197t32.5 -278q-16 -172 -93.5 -304t-198 -202.5t-267.5 -66.5q-138 2 -238.5 73.5t-147.5 196t-34 274.5zM306 408q5 -105 55.5 -168.5t140.5 -66.5q122 -3 204.5 94t103.5 265l6 98q0 128 -51 201 t-148 77q-152 4 -240 -149q-53 -93 -67 -214q-8 -84 -4 -137z" />
<glyph unicode="p" horiz-adv-x="1128" d="M1029 537q-20 -162 -86.5 -294t-169 -199.5t-229.5 -64.5q-169 4 -266 120l-97 -515h-238l260 1498l217 1l-18 -112q124 135 295 131q103 -1 179 -52.5t116.5 -149.5t43.5 -218q1 -61 -7 -145zM795 558l5 73q3 129 -42.5 200t-136.5 73q-134 4 -232 -123l-84 -483 q45 -121 183 -125q118 -3 198.5 92t108.5 293z" />
<glyph unicode="q" horiz-adv-x="1138" d="M68 543q20 171 91 303.5t174 196t230 60.5q172 -4 264 -129l39 109l214 -1l-260 -1498h-237l98 509q-121 -117 -277 -113q-155 2 -245 115.5t-97 303.5q-3 63 3 123zM303 522l-5 -72q-3 -135 42.5 -204.5t133.5 -71.5q75 -3 130.5 31.5t100.5 90.5l88 494 q-52 114 -182 118q-114 3 -193.5 -86t-107.5 -253z" />
<glyph unicode="r" horiz-adv-x="708" d="M724 860q-46 10 -93 10q-156 4 -248 -129l-130 -741h-237l187 1082l225 1l-24 -123q111 147 256 144q33 0 91 -15z" />
<glyph unicode="s" horiz-adv-x="1035" d="M663 300q17 99 -128.5 137.5t-198.5 61.5q-206 88 -199 268q5 146 132.5 241.5t305.5 93.5q172 -2 280.5 -97t106.5 -249l-235 1q2 75 -41 117.5t-118 44.5q-79 0 -135.5 -39t-65.5 -102q-14 -91 128 -126.5t210 -65.5q198 -87 191 -272q-5 -103 -67.5 -179.5 t-167.5 -117t-223 -37.5q-177 2 -293.5 103t-114.5 259l229 -1q2 -87 52 -132t137 -46q88 0 146.5 36.5t68.5 100.5z" />
<glyph unicode="t" horiz-adv-x="671" d="M547 1345l-46 -263h185l-31 -180h-186l-102 -606q-3 -25 -1 -45q6 -65 80 -68q37 0 84 9l-16 -190q-74 -21 -149 -21q-124 2 -185.5 84.5t-48.5 218.5l101 618h-173l32 180h172l46 263h238z" />
<glyph unicode="u" horiz-adv-x="1114" d="M685 107q-123 -131 -308 -127q-105 2 -174.5 52t-99 139.5t-17.5 210.5l117 700h237l-118 -703q-4 -37 -1 -72q10 -124 125 -129q157 -6 254 126l136 778h237l-187 -1082h-222z" />
<glyph unicode="v" horiz-adv-x="993" d="M442 311l342 771h253l-533 -1082h-206l-198 1082h238z" />
<glyph unicode="w" horiz-adv-x="1486" d="M993 337l297 745h238l-474 -1082h-195l-95 740l-350 -740h-196l-99 1082h224l41 -734l342 734h179z" />
<glyph unicode="x" horiz-adv-x="1009" d="M511 728l255 354h277l-414 -544l241 -538h-248l-151 369l-266 -369h-276l427 560l-233 522h248z" />
<glyph unicode="y" horiz-adv-x="977" d="M440 350l340 732h262l-641 -1269q-134 -256 -353 -253q-54 2 -123 20l20 188l43 -4q86 -3 142 32.5t94 110.5l57 112l-181 1063h246z" />
<glyph unicode="z" horiz-adv-x="1009" d="M312 194h550l-34 -194h-853l30 171l648 715h-515l35 196h823l-29 -165z" />
<glyph unicode="{" horiz-adv-x="676" d="M461 -359q-158 51 -236 171t-59 294l28 204q5 45 1 84q-13 122 -147 133l17 178q199 10 230 231l31 224q57 336 412 440l35 -143q-193 -70 -228 -332l-29 -218q-33 -197 -218 -293q73 -55 100 -136t18 -169l-30 -230l-3 -71q-3 -170 128 -228z" />
<glyph unicode="|" horiz-adv-x="509" d="M196 -270h-164l270 1726h164z" />
<glyph unicode="}" horiz-adv-x="676" d="M-103 -219q184 64 225 312l34 244q35 195 225 286q-112 74 -126 218q-5 43 0 88l30 230l4 72q0 170 -129 227l55 137q163 -54 235 -174.5t54 -288.5l-28 -204q-5 -46 -1 -84q13 -124 148 -135l-18 -178q-200 -10 -230 -229l-31 -223q-57 -340 -412 -442z" />
<glyph unicode="~" horiz-adv-x="1330" d="M1226 788q-12 -174 -110 -290t-246 -112q-81 2 -144 39t-121 95t-91.5 76t-66.5 18q-135 3 -169 -189h-187q14 175 113.5 285t244.5 106q82 -2 147 -40t121 -95t90 -75t65 -18q68 0 114.5 52.5t62.5 144.5z" />
<glyph unicode="&#xa1;" horiz-adv-x="536" d="M175 662h204l-154 -1026h-251zM462 975q0 -57 -37 -95.5t-96 -40.5t-97 35t-38 93q0 57 37 95t96 40q58 2 96.5 -35.5t38.5 -91.5z" />
<glyph unicode="&#xa2;" horiz-adv-x="1125" d="M502 173q88 -2 152 50t84 134l223 1q-14 -141 -121 -240.5t-267 -128.5l-47 -234h-196l48 236q-107 27 -175.5 100.5t-97.5 185t-15 243.5l2 20q25 229 148 374t316 179l46 225h195l-46 -227q132 -33 205.5 -138t71.5 -260h-221q0 97 -46 153.5t-129 60.5 q-143 6 -227.5 -127t-84.5 -373q0 -106 46 -168.5t136 -65.5z" />
<glyph unicode="&#xa3;" horiz-adv-x="1179" d="M494 598l-22 -174q-17 -130 -106 -225l680 3l-36 -202h-1020l36 201l69 -2q100 36 128 214l24 185h-157l35 199h151l31 251q16 127 85.5 226.5t178 152t235.5 48.5q180 -4 281.5 -112.5t93.5 -290.5l-239 1q5 95 -36 146.5t-124 55.5q-90 2 -153.5 -65t-77.5 -179 l-29 -234h302l-35 -199h-295z" />
<glyph unicode="&#xa4;" horiz-adv-x="1404" d="M980 105q-182 -129 -370 -125q-195 4 -330 126l-152 -132l-120 155l154 128q-27 85 -37 171q-19 147 25 289t146 259l-115 155l151 133l110 -143q175 116 353 112q185 -2 321 -116l170 148l121 -156l-169 -142q62 -185 42 -352q-26 -201 -157 -359l111 -149l-152 -134z M306 599q-15 -110 19 -210.5t111 -161t182 -64.5q113 -4 217.5 56.5t176 169t87.5 227.5q15 110 -19 209.5t-111 159.5t-182 64q-114 4 -219.5 -57t-175.5 -167t-86 -226z" />
<glyph unicode="&#xa5;" horiz-adv-x="1065" d="M566 849l359 607h275l-455 -714h221l-27 -152h-293l-25 -138h295l-27 -151h-293l-53 -301h-246l52 301h-299l27 151h298l25 138h-300l27 152h247l-209 714h254z" />
<glyph unicode="&#xa6;" horiz-adv-x="503" d="M-20 -270l139 795h223l-138 -795h-224zM372 698h-224l132 758h224z" />
<glyph unicode="&#xa7;" horiz-adv-x="1244" d="M1106 463q-14 -181 -214 -286q97 -104 84 -272q-9 -121 -80.5 -207t-191.5 -130.5t-265 -41.5q-224 2 -349.5 115t-120.5 310h240q-6 -107 57 -167.5t183 -62.5q120 0 198.5 49t91.5 132q21 120 -164 185l-146 48l-89 35q-277 119 -256 364q14 184 212 287 q-96 109 -83 273q14 176 163 280t376 102q214 -4 331.5 -118t108.5 -312l-236 1q6 108 -52 169.5t-163 63.5q-114 2 -192 -44q-83 -49 -97 -139q-22 -134 168 -190.5t274 -99.5q229 -116 212 -344zM465 723q-121 -55 -141 -173q-22 -136 160 -197l195 -64l40 -15 q129 59 149 173q22 129 -172 197z" />
<glyph unicode="&#xa8;" horiz-adv-x="884" d="M332 1485q54 0 89 -33.5t35 -82.5q0 -51 -35 -85.5t-88 -36.5q-56 0 -90 34t-34 82t34 84t89 38zM653 1362q0 53 35.5 86.5t86.5 35.5q56 0 90 -34t34 -82q0 -51 -35 -85.5t-88 -36.5q-56 0 -89.5 33.5t-33.5 82.5z" />
<glyph unicode="&#xa9;" horiz-adv-x="1566" d="M1091 596q-12 -150 -104.5 -234t-245.5 -80q-146 4 -228 112t-68 275l10 101q19 188 123 298t262 108q149 -4 226 -88.5t73 -227.5l-152 1q5 90 -31 134.5t-117 46.5q-93 2 -154.5 -69t-76 -195t-14.5 -151l2 -44q5 -75 42.5 -119t103.5 -47q167 -7 198 178zM233 571 q19 -204 147.5 -334.5t316.5 -132.5q184 -4 348.5 105.5t256 297t73.5 380.5q-19 202 -145 330.5t-318 133.5q-185 4 -349.5 -105t-257 -296.5t-72.5 -378.5zM115 722q17 150 85.5 289.5t180.5 248t246.5 164t278.5 52.5q178 -2 321 -100.5t214.5 -271.5t50.5 -369 q-22 -201 -137 -380t-288.5 -279t-364.5 -96q-182 4 -323 102t-213 272t-51 368z" />
<glyph unicode="&#xaa;" horiz-adv-x="896" d="M622 703q-5 40 -3 70q-93 -82 -202 -82q-106 0 -166.5 61.5t-56.5 158.5q2 115 95.5 177.5t261.5 62.5l104 -1l11 53q4 25 3 47q-7 75 -83 78q-119 4 -146 -99l-172 14q11 111 99.5 173.5t218.5 60.5q122 -2 192 -77t60 -200l-54 -347l-4 -58q-1 -45 8 -92h-166zM457 833 q69 0 159 62l27 138h-83q-82 -3 -133 -34t-59 -84q-7 -38 17.5 -60t71.5 -22z" />
<glyph unicode="&#xab;" horiz-adv-x="974" d="M274 524l166 -386h-148l-219 389l1 20l340 390h179zM622 524l166 -386h-148l-219 389l1 20l340 390h179z" />
<glyph unicode="&#xac;" horiz-adv-x="1109" d="M895 374h-196l46 260h-617l31 171h811z" />
<glyph unicode="&#xad;" horiz-adv-x="662" d="M565 521h-511l35 196h511z" />
<glyph unicode="&#xae;" horiz-adv-x="1566" d="M115 722q22 198 133 374.5t286 280t372 99.5q178 -2 321 -100.5t214.5 -271.5t50.5 -369q-22 -201 -137 -380t-288.5 -279t-364.5 -96q-182 4 -323 102t-213 272t-51 368zM232 571q12 -131 75 -238.5t163.5 -166.5t226.5 -62q156 -4 303.5 78t248 232.5t123.5 321.5 q21 159 -31.5 302t-164.5 226t-264 87q-185 4 -349.5 -105t-256.5 -295t-74 -380zM654 653l-53 -337h-148l133 850l260 -1q143 -5 217 -72t69 -180q-7 -116 -144 -192q73 -46 80 -146q2 -31 -4.5 -91.5t-5.5 -88.5l4 -62l-1 -18h-149q-5 37 -3 73q1 33 13 128q6 63 -16 97 t-88 38zM674 787l129 -1q74 2 124.5 35.5t60.5 87.5q11 59 -18.5 89.5t-118.5 33.5l-138 1z" />
<glyph unicode="&#xaf;" horiz-adv-x="967" d="M926 1292h-669l26 158h668z" />
<glyph unicode="&#xb0;" horiz-adv-x="765" d="M230 1199q2 111 84 195.5t193 82.5q99 -2 166 -78.5t65 -181.5q-4 -114 -84 -195.5t-188 -79.5q-102 2 -170 77t-66 180zM366 1201q-6 -44 21 -80.5t76 -36.5q55 0 95 39.5t46 91.5q6 49 -20.5 85.5t-73.5 36.5q-54 0 -96 -42t-48 -94z" />
<glyph unicode="&#xb1;" horiz-adv-x="1075" d="M696 899h333l-32 -199h-332l-61 -388h-211l61 388h-347l32 199h345l60 377h211zM852 1h-825l31 196h825z" />
<glyph unicode="&#xb2;" horiz-adv-x="745" d="M681 667h-595l24 135l342 281q97 83 109 150q7 41 -14.5 64.5t-62.5 24.5q-58 0 -91.5 -35.5t-45.5 -87.5l-182 -1q10 121 97.5 197t217.5 74q127 -2 200 -67.5t68 -169.5q-5 -126 -155 -245l-79 -60l-157 -110l351 -2z" />
<glyph unicode="&#xb3;" horiz-adv-x="745" d="M345 1133h83q61 2 99.5 30t45.5 74q9 67 -65 80l-23 2q-93 2 -121 -74l-186 -1q9 105 92 166t208 59q129 -3 205.5 -62.5t71.5 -157.5q-3 -59 -39.5 -102.5t-118.5 -81.5q118 -41 114 -170q-3 -111 -97 -176t-233 -63q-125 2 -201.5 67.5t-76.5 174.5l177 -1 q4 -89 110 -91q54 0 95.5 28t48.5 75q13 89 -107 94h-92z" />
<glyph unicode="&#xb4;" horiz-adv-x="657" d="M437 1536h285l-316 -303h-206z" />
<glyph unicode="&#xb5;" horiz-adv-x="1185" d="M461 1082l-102 -622q-8 -85 -6 -125q5 -157 138 -160q152 -4 242 120l138 787h237l-187 -1082h-215l15 86q-104 -110 -244 -108q-108 0 -190 57l-86 -451h-236l260 1498h236z" />
<glyph unicode="&#xb6;" horiz-adv-x="985" d="M530 0l90 520l-56 1q-211 3 -325 130.5t-94 328.5q19 211 168.5 344t374.5 133l300 -1l-253 -1456h-205z" />
<glyph unicode="&#xb7;" horiz-adv-x="571" d="M158 710q0 61 38.5 100t97.5 41q61 2 100 -37.5t39 -95.5q0 -59 -39 -97.5t-99 -40.5q-59 -2 -98 35t-39 95z" />
<glyph unicode="&#xb8;" horiz-adv-x="522" d="M197 4l-19 -59q62 -14 93.5 -56.5t30.5 -105.5q-2 -109 -91 -168.5t-256 -65.5l2 141q137 6 153 96q9 60 -73 73l-56 6l45 137z" />
<glyph unicode="&#xb9;" horiz-adv-x="745" d="M510 667h-181l99 566l-204 -47l27 153l366 115h23z" />
<glyph unicode="&#xba;" horiz-adv-x="917" d="M586 1477q144 -4 225.5 -103.5t70.5 -252.5l-6 -66q-15 -164 -120 -267t-258 -99q-141 4 -224.5 102t-72.5 253l6 66q10 110 61.5 194.5t134.5 130t183 42.5zM373 1041q-8 -97 26.5 -151t104.5 -56q79 -2 133 56.5t66 161.5l8 70q8 100 -26.5 152.5t-104.5 54.5 q-80 2 -134 -57t-65 -159z" />
<glyph unicode="&#xbb;" horiz-adv-x="974" d="M303 937l220 -388l-2 -21l-339 -390h-180l319 411l-165 388h147zM665 937l220 -388l-2 -21l-339 -390h-180l319 411l-165 388h147z" />
<glyph unicode="&#xbc;" horiz-adv-x="1453" d="M471 664h-181l99 566l-204 -47l27 153l366 115h23zM366 119l-121 79l880 1127l120 -79zM1222 313l100 1l-28 -151h-92l-28 -163h-184l30 163h-347l13 133l432 492l186 2zM875 314h170l51 245l-18 -24z" />
<glyph unicode="&#xbd;" horiz-adv-x="1542" d="M324 119l-121 79l880 1127l120 -79zM463 667h-181l99 566l-204 -47l27 153l366 115h23zM1336 0h-595l24 135l342 281q97 83 109 150q7 41 -14.5 64.5t-62.5 24.5q-58 0 -91.5 -35.5t-45.5 -87.5l-182 -1q10 121 97.5 197t217.5 74q127 -2 200 -67.5t68 -169.5 q-5 -126 -155 -245l-79 -60l-157 -110l351 -2z" />
<glyph unicode="&#xbe;" horiz-adv-x="1584" d="M503 119l-121 79l880 1127l120 -79zM1339 313l100 1l-28 -151h-92l-28 -163h-184l30 163h-347l13 133l432 492l186 2zM992 314h170l51 245l-18 -24zM392 1133h83q61 2 99.5 30t45.5 74q9 67 -65 80l-23 2q-93 2 -121 -74l-186 -1q9 105 92 166t208 59q129 -3 205.5 -62.5 t71.5 -157.5q-3 -59 -39.5 -102.5t-118.5 -81.5q118 -41 114 -170q-3 -111 -97 -176t-233 -63q-125 2 -201.5 67.5t-76.5 174.5l177 -1q4 -89 110 -91q54 0 95.5 28t48.5 75q13 89 -107 94h-92z" />
<glyph unicode="&#xbf;" horiz-adv-x="976" d="M619 662q-11 -116 -54.5 -201.5t-138.5 -172.5l-82 -74q-120 -109 -134 -220q-11 -82 26 -130t115 -50q83 -2 140.5 48.5t74.5 137.5h237q-17 -179 -147 -284.5t-318 -101.5q-183 4 -283.5 106t-87.5 271q15 179 210 350l109 94q95 86 115 226zM701 976q0 -59 -37 -96.5 t-95 -39.5q-59 -2 -97 35t-38 93q0 57 37 95t96 40q58 2 96 -35t38 -92z" />
<glyph unicode="&#xc0;" horiz-adv-x="1332" d="M893 339h-545l-174 -339h-266l786 1456h222l282 -1456h-248zM452 543h408l-99 602zM945 1543h-181l-215 303h254z" />
<glyph unicode="&#xc1;" horiz-adv-x="1332" d="M893 339h-545l-174 -339h-266l786 1456h222l282 -1456h-248zM452 543h408l-99 602zM939 1846h285l-316 -303h-206z" />
<glyph unicode="&#xc2;" horiz-adv-x="1332" d="M893 339h-545l-174 -339h-266l786 1456h222l282 -1456h-248zM452 543h408l-99 602zM1169 1572v-17l-185 3l-117 155l-173 -154l-193 -4l-1 18l301 274h136z" />
<glyph unicode="&#xc3;" horiz-adv-x="1332" d="M893 339h-545l-174 -339h-266l786 1456h222l282 -1456h-248zM452 543h408l-99 602zM1225 1824q-12 -119 -76.5 -189t-158.5 -70q-24 0 -46.5 7t-76 37.5t-79.5 40t-55 8.5q-79 -3 -106 -104l-149 8q10 114 75 189.5t161 73.5q48 -1 123 -45.5t109 -48.5l25 -1 q81 3 109 105z" />
<glyph unicode="&#xc4;" horiz-adv-x="1332" d="M893 339h-545l-174 -339h-266l786 1456h222l282 -1456h-248zM452 543h408l-99 602zM628 1795q54 0 89 -33.5t35 -82.5q0 -51 -35 -85.5t-88 -36.5q-56 0 -90 34t-34 82t34 84t89 38zM949 1672q0 53 35.5 86.5t86.5 35.5q56 0 90 -34t34 -82q0 -51 -35 -85.5t-88 -36.5 q-56 0 -89.5 33.5t-33.5 82.5z" />
<glyph unicode="&#xc5;" horiz-adv-x="1332" d="M893 339h-545l-174 -339h-266l786 1456h222l282 -1456h-248zM452 543h408l-99 602zM646 1724q0 90 66.5 153.5t159.5 63.5q82 0 143 -58.5t61 -142.5q0 -89 -66 -151.5t-159 -62.5q-87 0 -146 58t-59 140zM753 1726q-6 -40 19 -73t68 -33q50 0 86.5 36t42.5 82 q6 43 -18.5 75t-67.5 32q-50 0 -87 -36.5t-43 -82.5z" />
<glyph unicode="&#xc6;" horiz-adv-x="1877" d="M1719 0h-871l44 340h-479l-238 -340h-296l1062 1456h971l-35 -197h-626l-55 -408h533l-35 -197h-524l-60 -458h644zM562 555h358l85 634z" />
<glyph unicode="&#xc7;" horiz-adv-x="1307" d="M1194 475q-37 -228 -205 -363.5t-409 -131.5q-139 3 -243.5 66t-163.5 183.5t-66 272.5q-6 114 28 310.5t130.5 352.5t237 235t312.5 76q217 -4 343.5 -136.5t134.5 -365.5h-245q-5 156 -65.5 225.5t-179.5 72.5q-163 5 -273 -117t-148 -355l-20 -133l-9 -102 q-8 -103 14.5 -193.5t79.5 -138t145 -50.5q279 -11 358 290zM639 -1l-19 -59q62 -14 93.5 -56.5t30.5 -105.5q-2 -109 -91 -168.5t-256 -65.5l2 141q137 6 153 96q9 60 -73 73l-56 6l45 137z" />
<glyph unicode="&#xc8;" horiz-adv-x="1133" d="M979 650h-580l-78 -448h678l-35 -202h-925l252 1456h919l-36 -204h-671l-70 -402h581zM889 1550h-181l-215 303h254z" />
<glyph unicode="&#xc9;" horiz-adv-x="1133" d="M979 650h-580l-78 -448h678l-35 -202h-925l252 1456h919l-36 -204h-671l-70 -402h581zM883 1853h285l-316 -303h-206z" />
<glyph unicode="&#xca;" horiz-adv-x="1133" d="M979 650h-580l-78 -448h678l-35 -202h-925l252 1456h919l-36 -204h-671l-70 -402h581zM1113 1579v-17l-185 3l-117 155l-173 -154l-193 -4l-1 18l301 274h136z" />
<glyph unicode="&#xcb;" horiz-adv-x="1133" d="M979 650h-580l-78 -448h678l-35 -202h-925l252 1456h919l-36 -204h-671l-70 -402h581zM572 1802q54 0 89 -33.5t35 -82.5q0 -51 -35 -85.5t-88 -36.5q-56 0 -90 34t-34 82t34 84t89 38zM893 1679q0 53 35.5 86.5t86.5 35.5q56 0 90 -34t34 -82q0 -51 -35 -85.5t-88 -36.5 q-56 0 -89.5 33.5t-33.5 82.5z" />
<glyph unicode="&#xcc;" horiz-adv-x="571" d="M299 0h-246l253 1456h246zM562 1550h-181l-215 303h254z" />
<glyph unicode="&#xcd;" horiz-adv-x="571" d="M299 0h-246l253 1456h246zM555 1853h285l-316 -303h-206z" />
<glyph unicode="&#xce;" horiz-adv-x="571" d="M299 0h-246l253 1456h246zM786 1579v-17l-185 3l-117 155l-173 -154l-193 -4l-1 18l301 274h136z" />
<glyph unicode="&#xcf;" horiz-adv-x="571" d="M299 0h-246l253 1456h246zM245 1802q54 0 89 -33.5t35 -82.5q0 -51 -35 -85.5t-88 -36.5q-56 0 -90 34t-34 82t34 84t89 38zM566 1679q0 53 35.5 86.5t86.5 35.5q56 0 90 -34t34 -82q0 -51 -35 -85.5t-88 -36.5q-56 0 -89.5 33.5t-33.5 82.5z" />
<glyph unicode="&#xd0;" horiz-adv-x="1338" d="M69 0l113 652h-183l30 170h182l110 634l394 -1q182 0 313.5 -90.5t190.5 -250t36 -351.5l-11 -79q-30 -201 -132.5 -356.5t-264.5 -241.5t-356 -86h-422zM650 652h-221l-78 -450l146 -1q198 0 328.5 125.5t167.5 346.5q26 152 19 265q-9 145 -84.5 227t-209.5 86l-185 1 l-75 -430h222z" />
<glyph unicode="&#xd1;" horiz-adv-x="1420" d="M1161 0h-239l-455 1043l-181 -1043h-247l253 1456h239l455 -1047l182 1047h246zM1265 1824q-12 -119 -76.5 -189t-158.5 -70q-24 0 -46.5 7t-76 37.5t-79.5 40t-55 8.5q-79 -3 -106 -104l-149 8q10 114 75 189.5t161 73.5q48 -1 123 -45.5t109 -48.5l25 -1q81 3 109 105z " />
<glyph unicode="&#xd2;" horiz-adv-x="1382" d="M599 -20q-142 3 -249.5 68t-167.5 188.5t-68 280.5q-7 125 22.5 292t105 304.5t180.5 224.5q173 142 400 138q216 -4 344.5 -149t140.5 -392q6 -124 -22.5 -284.5t-98 -295t-172.5 -224.5q-178 -156 -415 -151zM1054 767l9 106q6 109 -19 201.5t-84.5 141t-150.5 51.5 q-126 4 -223.5 -71t-158 -228t-70.5 -384q-10 -183 56 -288t198 -109q173 -5 285.5 130t147.5 380zM968 1543h-181l-215 303h254z" />
<glyph unicode="&#xd3;" horiz-adv-x="1382" d="M599 -20q-142 3 -249.5 68t-167.5 188.5t-68 280.5q-7 125 22.5 292t105 304.5t180.5 224.5q173 142 400 138q216 -4 344.5 -149t140.5 -392q6 -124 -22.5 -284.5t-98 -295t-172.5 -224.5q-178 -156 -415 -151zM1054 767l9 106q6 109 -19 201.5t-84.5 141t-150.5 51.5 q-126 4 -223.5 -71t-158 -228t-70.5 -384q-10 -183 56 -288t198 -109q173 -5 285.5 130t147.5 380zM962 1846h285l-316 -303h-206z" />
<glyph unicode="&#xd4;" horiz-adv-x="1382" d="M599 -20q-142 3 -249.5 68t-167.5 188.5t-68 280.5q-7 125 22.5 292t105 304.5t180.5 224.5q173 142 400 138q216 -4 344.5 -149t140.5 -392q6 -124 -22.5 -284.5t-98 -295t-172.5 -224.5q-178 -156 -415 -151zM1054 767l9 106q6 109 -19 201.5t-84.5 141t-150.5 51.5 q-126 4 -223.5 -71t-158 -228t-70.5 -384q-10 -183 56 -288t198 -109q173 -5 285.5 130t147.5 380zM1192 1572v-17l-185 3l-117 155l-173 -154l-193 -4l-1 18l301 274h136z" />
<glyph unicode="&#xd5;" horiz-adv-x="1382" d="M599 -20q-142 3 -249.5 68t-167.5 188.5t-68 280.5q-7 125 22.5 292t105 304.5t180.5 224.5q173 142 400 138q216 -4 344.5 -149t140.5 -392q6 -124 -22.5 -284.5t-98 -295t-172.5 -224.5q-178 -156 -415 -151zM1054 767l9 106q6 109 -19 201.5t-84.5 141t-150.5 51.5 q-126 4 -223.5 -71t-158 -228t-70.5 -384q-10 -183 56 -288t198 -109q173 -5 285.5 130t147.5 380zM1248 1824q-12 -119 -76.5 -189t-158.5 -70q-24 0 -46.5 7t-76 37.5t-79.5 40t-55 8.5q-79 -3 -106 -104l-149 8q10 114 75 189.5t161 73.5q48 -1 123 -45.5t109 -48.5 l25 -1q81 3 109 105z" />
<glyph unicode="&#xd6;" horiz-adv-x="1382" d="M599 -20q-142 3 -249.5 68t-167.5 188.5t-68 280.5q-7 125 22.5 292t105 304.5t180.5 224.5q173 142 400 138q216 -4 344.5 -149t140.5 -392q6 -124 -22.5 -284.5t-98 -295t-172.5 -224.5q-178 -156 -415 -151zM1054 767l9 106q6 109 -19 201.5t-84.5 141t-150.5 51.5 q-126 4 -223.5 -71t-158 -228t-70.5 -384q-10 -183 56 -288t198 -109q173 -5 285.5 130t147.5 380zM651 1795q54 0 89 -33.5t35 -82.5q0 -51 -35 -85.5t-88 -36.5q-56 0 -90 34t-34 82t34 84t89 38zM972 1672q0 53 35.5 86.5t86.5 35.5q56 0 90 -34t34 -82q0 -51 -35 -85.5 t-88 -36.5q-56 0 -89.5 33.5t-33.5 82.5z" />
<glyph unicode="&#xd7;" horiz-adv-x="1069" d="M35 375l363 321l-251 323l158 139l250 -321l362 321l127 -161l-363 -321l251 -323l-158 -139l-251 320l-361 -320z" />
<glyph unicode="&#xd8;" horiz-adv-x="1380" d="M599 -21q-156 4 -279 77l-118 -151l-181 1l194 240q-108 176 -106 402l3 79q19 268 115.5 459t251 292t344.5 99q190 -4 318 -103l112 143h179l-196 -244q56 -121 70 -249q17 -170 -20 -375.5t-137.5 -361.5t-242.5 -233.5t-307 -74.5zM349 522q-3 -85 17 -168l637 831 q-62 78 -191 83q-166 5 -279 -123t-154 -361q-26 -149 -30 -262zM1073 907q5 70 -1 141l-621 -810q63 -50 159 -52q176 -5 289.5 134.5t149.5 389.5l17 121z" />
<glyph unicode="&#xd9;" horiz-adv-x="1305" d="M1327 1456l-165 -973q-34 -233 -199.5 -371t-400.5 -134q-218 4 -344.5 132t-115.5 334l3 38l165 974h246l-165 -975q-18 -139 41 -217t182 -82q135 -4 225 73t115 221l167 980h246zM928 1543h-181l-215 303h254z" />
<glyph unicode="&#xda;" horiz-adv-x="1305" d="M1327 1456l-165 -973q-34 -233 -199.5 -371t-400.5 -134q-218 4 -344.5 132t-115.5 334l3 38l165 974h246l-165 -975q-18 -139 41 -217t182 -82q135 -4 225 73t115 221l167 980h246zM922 1846h285l-316 -303h-206z" />
<glyph unicode="&#xdb;" horiz-adv-x="1305" d="M1327 1456l-165 -973q-34 -233 -199.5 -371t-400.5 -134q-218 4 -344.5 132t-115.5 334l3 38l165 974h246l-165 -975q-18 -139 41 -217t182 -82q135 -4 225 73t115 221l167 980h246zM1152 1572v-17l-185 3l-117 155l-173 -154l-193 -4l-1 18l301 274h136z" />
<glyph unicode="&#xdc;" horiz-adv-x="1305" d="M1327 1456l-165 -973q-34 -233 -199.5 -371t-400.5 -134q-218 4 -344.5 132t-115.5 334l3 38l165 974h246l-165 -975q-18 -139 41 -217t182 -82q135 -4 225 73t115 221l167 980h246zM611 1795q54 0 89 -33.5t35 -82.5q0 -51 -35 -85.5t-88 -36.5q-56 0 -90 34t-34 82 t34 84t89 38zM932 1672q0 53 35.5 86.5t86.5 35.5q56 0 90 -34t34 -82q0 -51 -35 -85.5t-88 -36.5q-56 0 -89.5 33.5t-33.5 82.5z" />
<glyph unicode="&#xdd;" horiz-adv-x="1221" d="M627 768l444 688h286l-642 -933l-91 -523h-248l96 549l-311 907h261zM882 1846h285l-316 -303h-206z" />
<glyph unicode="&#xde;" horiz-adv-x="1199" d="M529 1456l-49 -280l203 -1q222 -1 346.5 -118t109.5 -311q-16 -203 -169.5 -325t-388.5 -122l-252 1l-53 -300h-237l253 1456h237zM447 981l-85 -486l225 -2q128 2 214 70.5t101 181.5q14 107 -42 169t-162 66z" />
<glyph unicode="&#xdf;" horiz-adv-x="1227" d="M264 0h-237l189 1105q28 210 156 333.5t328 119.5q167 -4 262 -98.5t82 -250.5q-4 -49 -22 -92.5t-66 -120.5t-62 -110t-21 -71q-8 -49 15 -100t91 -127.5t94.5 -131.5t24.5 -111q-9 -173 -133 -271.5t-313 -94.5q-171 2 -284 67l68 193q103 -66 211 -66q88 0 147 44.5 t70 117.5q8 52 -17 103t-95 126q-126 134 -117 245q4 57 29 103.5t55 91t56 90.5t33 101q9 76 -25.5 122t-104.5 50q-90 3 -148.5 -62.5t-78.5 -200.5z" />
<glyph unicode="&#xe0;" horiz-adv-x="1085" d="M659 0q-12 40 -10 101q-134 -125 -289 -121q-141 2 -233.5 90.5t-86.5 224.5q8 171 148 269t376 98l154 -2l14 74q6 39 0 73q-20 108 -143 111q-76 2 -133.5 -38.5t-70.5 -108.5l-237 -2q7 100 71 175.5t170 117.5t224 40q177 -4 276 -106.5t82 -265.5l-83 -507l-8 -90 q-3 -59 15 -115l-1 -18h-235zM415 174q75 -2 139 34.5t109 94.5l37 205l-113 1q-134 0 -214 -50.5t-91 -138.5q-8 -67 29.5 -105.5t103.5 -40.5zM777 1233h-181l-215 303h254z" />
<glyph unicode="&#xe1;" horiz-adv-x="1085" d="M659 0q-12 40 -10 101q-134 -125 -289 -121q-141 2 -233.5 90.5t-86.5 224.5q8 171 148 269t376 98l154 -2l14 74q6 39 0 73q-20 108 -143 111q-76 2 -133.5 -38.5t-70.5 -108.5l-237 -2q7 100 71 175.5t170 117.5t224 40q177 -4 276 -106.5t82 -265.5l-83 -507l-8 -90 q-3 -59 15 -115l-1 -18h-235zM415 174q75 -2 139 34.5t109 94.5l37 205l-113 1q-134 0 -214 -50.5t-91 -138.5q-8 -67 29.5 -105.5t103.5 -40.5zM771 1536h285l-316 -303h-206z" />
<glyph unicode="&#xe2;" horiz-adv-x="1085" d="M659 0q-12 40 -10 101q-134 -125 -289 -121q-141 2 -233.5 90.5t-86.5 224.5q8 171 148 269t376 98l154 -2l14 74q6 39 0 73q-20 108 -143 111q-76 2 -133.5 -38.5t-70.5 -108.5l-237 -2q7 100 71 175.5t170 117.5t224 40q177 -4 276 -106.5t82 -265.5l-83 -507l-8 -90 q-3 -59 15 -115l-1 -18h-235zM415 174q75 -2 139 34.5t109 94.5l37 205l-113 1q-134 0 -214 -50.5t-91 -138.5q-8 -67 29.5 -105.5t103.5 -40.5zM1001 1262v-17l-185 3l-117 155l-173 -154l-193 -4l-1 18l301 274h136z" />
<glyph unicode="&#xe3;" horiz-adv-x="1085" d="M659 0q-12 40 -10 101q-134 -125 -289 -121q-141 2 -233.5 90.5t-86.5 224.5q8 171 148 269t376 98l154 -2l14 74q6 39 0 73q-20 108 -143 111q-76 2 -133.5 -38.5t-70.5 -108.5l-237 -2q7 100 71 175.5t170 117.5t224 40q177 -4 276 -106.5t82 -265.5l-83 -507l-8 -90 q-3 -59 15 -115l-1 -18h-235zM415 174q75 -2 139 34.5t109 94.5l37 205l-113 1q-134 0 -214 -50.5t-91 -138.5q-8 -67 29.5 -105.5t103.5 -40.5zM1057 1514q-12 -119 -76.5 -189t-158.5 -70q-24 0 -46.5 7t-76 37.5t-79.5 40t-55 8.5q-79 -3 -106 -104l-149 8 q10 114 75 189.5t161 73.5q48 -1 123 -45.5t109 -48.5l25 -1q81 3 109 105z" />
<glyph unicode="&#xe4;" horiz-adv-x="1085" d="M659 0q-12 40 -10 101q-134 -125 -289 -121q-141 2 -233.5 90.5t-86.5 224.5q8 171 148 269t376 98l154 -2l14 74q6 39 0 73q-20 108 -143 111q-76 2 -133.5 -38.5t-70.5 -108.5l-237 -2q7 100 71 175.5t170 117.5t224 40q177 -4 276 -106.5t82 -265.5l-83 -507l-8 -90 q-3 -59 15 -115l-1 -18h-235zM415 174q75 -2 139 34.5t109 94.5l37 205l-113 1q-134 0 -214 -50.5t-91 -138.5q-8 -67 29.5 -105.5t103.5 -40.5zM460 1485q54 0 89 -33.5t35 -82.5q0 -51 -35 -85.5t-88 -36.5q-56 0 -90 34t-34 82t34 84t89 38zM781 1362q0 53 35.5 86.5 t86.5 35.5q56 0 90 -34t34 -82q0 -51 -35 -85.5t-88 -36.5q-56 0 -89.5 33.5t-33.5 82.5z" />
<glyph unicode="&#xe5;" horiz-adv-x="1085" d="M659 0q-12 40 -10 101q-134 -125 -289 -121q-141 2 -233.5 90.5t-86.5 224.5q8 171 148 269t376 98l154 -2l14 74q6 39 0 73q-20 108 -143 111q-76 2 -133.5 -38.5t-70.5 -108.5l-237 -2q7 100 71 175.5t170 117.5t224 40q177 -4 276 -106.5t82 -265.5l-83 -507l-8 -90 q-3 -59 15 -115l-1 -18h-235zM415 174q75 -2 139 34.5t109 94.5l37 205l-113 1q-134 0 -214 -50.5t-91 -138.5q-8 -67 29.5 -105.5t103.5 -40.5zM478 1414q0 90 66.5 153.5t159.5 63.5q82 0 143 -58.5t61 -142.5q0 -89 -66 -151.5t-159 -62.5q-87 0 -146 58t-59 140z M585 1416q-6 -40 19 -73t68 -33q50 0 86.5 36t42.5 82q6 43 -18.5 75t-67.5 32q-50 0 -87 -36.5t-43 -82.5z" />
<glyph unicode="&#xe6;" horiz-adv-x="1687" d="M1130 -19q-115 0 -209 41.5t-147 117.5q-172 -164 -425 -160q-154 2 -244 89.5t-82 234.5q10 161 140.5 250t360.5 89l191 -2l13 74q6 38 2 72q-17 117 -136 120q-87 2 -146.5 -40t-72.5 -115l-237 19q7 98 68.5 174.5t171 118t232.5 39.5q215 -5 305 -133 q155 136 340 132q194 -6 293.5 -141t73.5 -349l-21 -141h-669q-14 -136 45.5 -214.5t174.5 -80.5q85 -2 160.5 24.5t149.5 65.5l58 -168q-65 -57 -170.5 -88t-219.5 -29zM402 163q114 0 252 102l40 210l-169 1q-107 -3 -179.5 -50t-84.5 -126q-9 -63 30 -99t111 -38z M1239 908q-96 3 -169 -64.5t-119 -202.5h438l6 33q7 45 3 87q-14 141 -159 147z" />
<glyph unicode="&#xe7;" horiz-adv-x="1050" d="M488 173q85 -2 150.5 49.5t83.5 134.5l224 1q-11 -107 -77.5 -195t-170.5 -137t-217 -46q-139 2 -237 72t-143 193.5t-30 275.5l3 35q17 157 91.5 284.5t192.5 196.5t262 65q176 -4 281 -116.5t105 -292.5h-222q0 93 -45.5 152t-131.5 63q-139 4 -219 -118t-86 -344 q-7 -269 186 -273zM513 -1l-19 -59q62 -14 93.5 -56.5t30.5 -105.5q-2 -109 -91 -168.5t-256 -65.5l2 141q137 6 153 96q9 60 -73 73l-56 6l45 137z" />
<glyph unicode="&#xe8;" horiz-adv-x="1076" d="M506 -20q-141 3 -244.5 71t-153 186t-37.5 263l3 41q18 165 96.5 296.5t195.5 199.5t254 65q203 -4 304.5 -151t76.5 -383l-14 -104h-681q-9 -129 52 -208t168 -81q153 -5 282 133l120 -126q-68 -97 -179 -150.5t-243 -51.5zM607 908q-188 6 -282 -266l449 -1l4 21 q7 46 1 90q-11 71 -56 112t-116 44zM754 1233h-181l-215 303h254z" />
<glyph unicode="&#xe9;" horiz-adv-x="1076" d="M506 -20q-141 3 -244.5 71t-153 186t-37.5 263l3 41q18 165 96.5 296.5t195.5 199.5t254 65q203 -4 304.5 -151t76.5 -383l-14 -104h-681q-9 -129 52 -208t168 -81q153 -5 282 133l120 -126q-68 -97 -179 -150.5t-243 -51.5zM607 908q-188 6 -282 -266l449 -1l4 21 q7 46 1 90q-11 71 -56 112t-116 44zM748 1536h285l-316 -303h-206z" />
<glyph unicode="&#xea;" horiz-adv-x="1076" d="M506 -20q-141 3 -244.5 71t-153 186t-37.5 263l3 41q18 165 96.5 296.5t195.5 199.5t254 65q203 -4 304.5 -151t76.5 -383l-14 -104h-681q-9 -129 52 -208t168 -81q153 -5 282 133l120 -126q-68 -97 -179 -150.5t-243 -51.5zM607 908q-188 6 -282 -266l449 -1l4 21 q7 46 1 90q-11 71 -56 112t-116 44zM978 1262v-17l-185 3l-117 155l-173 -154l-193 -4l-1 18l301 274h136z" />
<glyph unicode="&#xeb;" horiz-adv-x="1076" d="M506 -20q-141 3 -244.5 71t-153 186t-37.5 263l3 41q18 165 96.5 296.5t195.5 199.5t254 65q203 -4 304.5 -151t76.5 -383l-14 -104h-681q-9 -129 52 -208t168 -81q153 -5 282 133l120 -126q-68 -97 -179 -150.5t-243 -51.5zM607 908q-188 6 -282 -266l449 -1l4 21 q7 46 1 90q-11 71 -56 112t-116 44zM437 1485q54 0 89 -33.5t35 -82.5q0 -51 -35 -85.5t-88 -36.5q-56 0 -90 34t-34 82t34 84t89 38zM758 1362q0 53 35.5 86.5t86.5 35.5q56 0 90 -34t34 -82q0 -51 -35 -85.5t-88 -36.5q-56 0 -89.5 33.5t-33.5 82.5z" />
<glyph unicode="&#xec;" horiz-adv-x="532" d="M271 0h-237l188 1082h237zM487 1226h-181l-215 303h254z" />
<glyph unicode="&#xed;" horiz-adv-x="532" d="M271 0h-237l188 1082h237zM480 1529h285l-316 -303h-206z" />
<glyph unicode="&#xee;" horiz-adv-x="532" d="M271 0h-237l188 1082h237zM711 1255v-17l-185 3l-117 155l-173 -154l-193 -4l-1 18l301 274h136z" />
<glyph unicode="&#xef;" horiz-adv-x="532" d="M271 0h-237l188 1082h237zM170 1478q54 0 89 -33.5t35 -82.5q0 -51 -35 -85.5t-88 -36.5q-56 0 -90 34t-34 82t34 84t89 38zM491 1355q0 53 35.5 86.5t86.5 35.5q56 0 90 -34t34 -82q0 -51 -35 -85.5t-88 -36.5q-56 0 -89.5 33.5t-33.5 82.5z" />
<glyph unicode="&#xf0;" horiz-adv-x="1165" d="M933 1300q91 -155 123.5 -317t9.5 -341l-12 -86q-23 -167 -107 -305t-202 -206.5t-255 -65.5q-127 4 -225.5 68t-146.5 174t-36 239q13 144 81 264t180 187t245 63q138 -4 245 -93q-4 153 -100 291l-224 -136l-63 121l184 108q-91 73 -256 121l91 194q222 -54 370 -185 l201 122l62 -121zM834 685q-54 97 -201 102q-127 2 -212.5 -89t-101.5 -238q-14 -120 38.5 -202.5t150.5 -85.5q118 -5 199.5 99t106.5 277z" />
<glyph unicode="&#xf1;" horiz-adv-x="1115" d="M423 1083l-24 -127q139 150 321 146q152 -3 225 -108.5t54 -294.5l-117 -699h-237l118 702q5 43 1 80q-13 119 -142 122q-135 2 -237 -133l-135 -771h-237l187 1082zM1063 1514q-12 -119 -76.5 -189t-158.5 -70q-24 0 -46.5 7t-76 37.5t-79.5 40t-55 8.5 q-79 -3 -106 -104l-149 8q10 114 75 189.5t161 73.5q48 -1 123 -45.5t109 -48.5l25 -1q81 3 109 105z" />
<glyph unicode="&#xf2;" horiz-adv-x="1141" d="M73 545q17 159 93.5 289t196.5 201t266 67q139 -2 240 -74t147.5 -197t32.5 -278q-16 -172 -93.5 -304t-198 -202.5t-267.5 -66.5q-138 2 -238.5 73.5t-147.5 196t-34 274.5zM306 408q5 -105 55.5 -168.5t140.5 -66.5q122 -3 204.5 94t103.5 265l6 98q0 128 -51 201 t-148 77q-152 4 -240 -149q-53 -93 -67 -214q-8 -84 -4 -137zM774 1233h-181l-215 303h254z" />
<glyph unicode="&#xf3;" horiz-adv-x="1141" d="M73 545q17 159 93.5 289t196.5 201t266 67q139 -2 240 -74t147.5 -197t32.5 -278q-16 -172 -93.5 -304t-198 -202.5t-267.5 -66.5q-138 2 -238.5 73.5t-147.5 196t-34 274.5zM306 408q5 -105 55.5 -168.5t140.5 -66.5q122 -3 204.5 94t103.5 265l6 98q0 128 -51 201 t-148 77q-152 4 -240 -149q-53 -93 -67 -214q-8 -84 -4 -137zM768 1536h285l-316 -303h-206z" />
<glyph unicode="&#xf4;" horiz-adv-x="1141" d="M73 545q17 159 93.5 289t196.5 201t266 67q139 -2 240 -74t147.5 -197t32.5 -278q-16 -172 -93.5 -304t-198 -202.5t-267.5 -66.5q-138 2 -238.5 73.5t-147.5 196t-34 274.5zM306 408q5 -105 55.5 -168.5t140.5 -66.5q122 -3 204.5 94t103.5 265l6 98q0 128 -51 201 t-148 77q-152 4 -240 -149q-53 -93 -67 -214q-8 -84 -4 -137zM998 1262v-17l-185 3l-117 155l-173 -154l-193 -4l-1 18l301 274h136z" />
<glyph unicode="&#xf5;" horiz-adv-x="1141" d="M73 545q17 159 93.5 289t196.5 201t266 67q139 -2 240 -74t147.5 -197t32.5 -278q-16 -172 -93.5 -304t-198 -202.5t-267.5 -66.5q-138 2 -238.5 73.5t-147.5 196t-34 274.5zM306 408q5 -105 55.5 -168.5t140.5 -66.5q122 -3 204.5 94t103.5 265l6 98q0 128 -51 201 t-148 77q-152 4 -240 -149q-53 -93 -67 -214q-8 -84 -4 -137zM1054 1514q-12 -119 -76.5 -189t-158.5 -70q-24 0 -46.5 7t-76 37.5t-79.5 40t-55 8.5q-79 -3 -106 -104l-149 8q10 114 75 189.5t161 73.5q48 -1 123 -45.5t109 -48.5l25 -1q81 3 109 105z" />
<glyph unicode="&#xf6;" horiz-adv-x="1141" d="M73 545q17 159 93.5 289t196.5 201t266 67q139 -2 240 -74t147.5 -197t32.5 -278q-16 -172 -93.5 -304t-198 -202.5t-267.5 -66.5q-138 2 -238.5 73.5t-147.5 196t-34 274.5zM306 408q5 -105 55.5 -168.5t140.5 -66.5q122 -3 204.5 94t103.5 265l6 98q0 128 -51 201 t-148 77q-152 4 -240 -149q-53 -93 -67 -214q-8 -84 -4 -137zM457 1485q54 0 89 -33.5t35 -82.5q0 -51 -35 -85.5t-88 -36.5q-56 0 -90 34t-34 82t34 84t89 38zM778 1362q0 53 35.5 86.5t86.5 35.5q56 0 90 -34t34 -82q0 -51 -35 -85.5t-88 -36.5q-56 0 -89.5 33.5 t-33.5 82.5z" />
<glyph unicode="&#xf7;" horiz-adv-x="1144" d="M1044 582h-983l37 212h984zM508 1091q0 61 39 98.5t97 39.5q61 2 100 -36t39 -94q0 -57 -37.5 -96t-99.5 -41q-59 -2 -98.5 34t-39.5 95zM366 274q0 57 38 97t99 42q57 2 97.5 -34.5t40.5 -96.5q0 -59 -38 -96.5t-99 -39.5q-57 -2 -97.5 34t-40.5 94z" />
<glyph unicode="&#xf8;" horiz-adv-x="1135" d="M68 544q15 118 62 223.5t125 183.5q156 157 379 153q94 -2 189 -37l97 144l155 -1l-146 -210q112 -132 119 -327q2 -58 -6 -141q-20 -159 -97.5 -288t-199.5 -198.5t-270 -67.5q-86 2 -177 33l-101 -148l-155 1l146 209q-118 130 -126 329q-3 61 4 121zM291 399 q-1 -63 19 -124l404 615q-38 19 -91 21q-100 1 -175.5 -63.5t-115.5 -185t-41 -263.5zM820 673q1 60 -17 120l-400 -607q40 -14 82 -16q121 -3 206.5 92t115.5 270q12 84 13 141z" />
<glyph unicode="&#xf9;" horiz-adv-x="1114" d="M685 107q-123 -131 -308 -127q-105 2 -174.5 52t-99 139.5t-17.5 210.5l117 700h237l-118 -703q-4 -37 -1 -72q10 -124 125 -129q157 -6 254 126l136 778h237l-187 -1082h-222zM779 1233h-181l-215 303h254z" />
<glyph unicode="&#xfa;" horiz-adv-x="1114" d="M685 107q-123 -131 -308 -127q-105 2 -174.5 52t-99 139.5t-17.5 210.5l117 700h237l-118 -703q-4 -37 -1 -72q10 -124 125 -129q157 -6 254 126l136 778h237l-187 -1082h-222zM773 1536h285l-316 -303h-206z" />
<glyph unicode="&#xfb;" horiz-adv-x="1114" d="M685 107q-123 -131 -308 -127q-105 2 -174.5 52t-99 139.5t-17.5 210.5l117 700h237l-118 -703q-4 -37 -1 -72q10 -124 125 -129q157 -6 254 126l136 778h237l-187 -1082h-222zM1003 1262v-17l-185 3l-117 155l-173 -154l-193 -4l-1 18l301 274h136z" />
<glyph unicode="&#xfc;" horiz-adv-x="1114" d="M685 107q-123 -131 -308 -127q-105 2 -174.5 52t-99 139.5t-17.5 210.5l117 700h237l-118 -703q-4 -37 -1 -72q10 -124 125 -129q157 -6 254 126l136 778h237l-187 -1082h-222zM462 1485q54 0 89 -33.5t35 -82.5q0 -51 -35 -85.5t-88 -36.5q-56 0 -90 34t-34 82t34 84 t89 38zM783 1362q0 53 35.5 86.5t86.5 35.5q56 0 90 -34t34 -82q0 -51 -35 -85.5t-88 -36.5q-56 0 -89.5 33.5t-33.5 82.5z" />
<glyph unicode="&#xfd;" horiz-adv-x="977" d="M440 350l340 732h262l-641 -1269q-134 -256 -353 -253q-54 2 -123 20l20 188l43 -4q86 -3 142 32.5t94 110.5l57 112l-181 1063h246zM719 1536h285l-316 -303h-206z" />
<glyph unicode="&#xfe;" horiz-adv-x="1150" d="M1036 536q-20 -164 -88 -296.5t-170.5 -198.5t-227.5 -63q-168 4 -266 121l-97 -515h-238l339 1952h237l-106 -554q122 124 285 120q157 -4 245.5 -115t93.5 -304q1 -60 -7 -147zM801 558l5 74q3 127 -42 197.5t-138 74.5q-133 4 -231 -123l-85 -483q47 -121 184 -125 q118 -3 198.5 92t108.5 293z" />
<glyph unicode="&#xff;" horiz-adv-x="977" d="M440 350l340 732h262l-641 -1269q-134 -256 -353 -253q-54 2 -123 20l20 188l43 -4q86 -3 142 32.5t94 110.5l57 112l-181 1063h246zM408 1485q54 0 89 -33.5t35 -82.5q0 -51 -35 -85.5t-88 -36.5q-56 0 -90 34t-34 82t34 84t89 38zM729 1362q0 53 35.5 86.5t86.5 35.5 q56 0 90 -34t34 -82q0 -51 -35 -85.5t-88 -36.5q-56 0 -89.5 33.5t-33.5 82.5z" />
<glyph unicode="&#x100;" horiz-adv-x="1332" d="M893 339h-545l-174 -339h-266l786 1456h222l282 -1456h-248zM452 543h408l-99 602zM1176 1606h-669l26 158h668z" />
<glyph unicode="&#x101;" horiz-adv-x="1085" d="M659 0q-12 40 -10 101q-134 -125 -289 -121q-141 2 -233.5 90.5t-86.5 224.5q8 171 148 269t376 98l154 -2l14 74q6 39 0 73q-20 108 -143 111q-76 2 -133.5 -38.5t-70.5 -108.5l-237 -2q7 100 71 175.5t170 117.5t224 40q177 -4 276 -106.5t82 -265.5l-83 -507l-8 -90 q-3 -59 15 -115l-1 -18h-235zM415 174q75 -2 139 34.5t109 94.5l37 205l-113 1q-134 0 -214 -50.5t-91 -138.5q-8 -67 29.5 -105.5t103.5 -40.5zM1008 1296h-669l26 158h668z" />
<glyph unicode="&#x102;" horiz-adv-x="1332" d="M893 339h-545l-174 -339h-266l786 1456h222l282 -1456h-248zM452 543h408l-99 602zM1180 1821q-10 -133 -103 -210t-228 -73q-132 2 -211.5 78.5t-79.5 204.5l176 -1q-5 -140 115 -140q67 0 105 39t50 100z" />
<glyph unicode="&#x103;" horiz-adv-x="1085" d="M659 0q-12 40 -10 101q-134 -125 -289 -121q-141 2 -233.5 90.5t-86.5 224.5q8 171 148 269t376 98l154 -2l14 74q6 39 0 73q-20 108 -143 111q-76 2 -133.5 -38.5t-70.5 -108.5l-237 -2q7 100 71 175.5t170 117.5t224 40q177 -4 276 -106.5t82 -265.5l-83 -507l-8 -90 q-3 -59 15 -115l-1 -18h-235zM415 174q75 -2 139 34.5t109 94.5l37 205l-113 1q-134 0 -214 -50.5t-91 -138.5q-8 -67 29.5 -105.5t103.5 -40.5zM1012 1511q-10 -133 -103 -210t-228 -73q-132 2 -211.5 78.5t-79.5 204.5l176 -1q-5 -140 115 -140q67 0 105 39t50 100z" />
<glyph unicode="&#x104;" horiz-adv-x="1332" d="M1137 0l5 -3l-47 -31q-131 -86 -138 -172q-5 -57 51 -60q27 -1 88 22l12 -144q-69 -43 -154 -41q-87 0 -139.5 54.5t-50.5 138.5q3 149 183 254l-54 321h-545l-174 -339h-266l786 1456h222l282 -1456h-61zM452 543h408l-99 602z" />
<glyph unicode="&#x105;" horiz-adv-x="1085" d="M842 0l5 -3l-47 -31q-131 -86 -138 -172q-5 -57 51 -60q27 -1 88 22l12 -144q-69 -43 -154 -41q-87 0 -139.5 54.5t-50.5 138.5q3 150 184 255l-4 41v41q-134 -125 -289 -121q-141 2 -233.5 90.5t-86.5 224.5q8 171 148 269t376 98l154 -2l14 74q6 39 0 73 q-20 108 -143 111q-76 2 -133.5 -38.5t-70.5 -108.5l-237 -2q7 100 71 175.5t170 117.5t224 40q177 -4 276 -106.5t82 -265.5l-83 -507l-8 -90q-3 -59 15 -115l-1 -18h-52zM415 174q75 -2 139 34.5t109 94.5l37 205l-113 1q-134 0 -214 -50.5t-91 -138.5q-8 -67 29.5 -105.5 t103.5 -40.5z" />
<glyph unicode="&#x106;" horiz-adv-x="1307" d="M1194 475q-37 -228 -205 -363.5t-409 -131.5q-139 3 -243.5 66t-163.5 183.5t-66 272.5q-6 114 28 310.5t130.5 352.5t237 235t312.5 76q217 -4 343.5 -136.5t134.5 -365.5h-245q-5 156 -65.5 225.5t-179.5 72.5q-163 5 -273 -117t-148 -355l-20 -133l-9 -102 q-8 -103 14.5 -193.5t79.5 -138t145 -50.5q279 -11 358 290zM941 1867h285l-316 -303h-206z" />
<glyph unicode="&#x107;" horiz-adv-x="1050" d="M488 173q85 -2 150.5 49.5t83.5 134.5l224 1q-11 -107 -77.5 -195t-170.5 -137t-217 -46q-139 2 -237 72t-143 193.5t-30 275.5l3 35q17 157 91.5 284.5t192.5 196.5t262 65q176 -4 281 -116.5t105 -292.5h-222q0 93 -45.5 152t-131.5 63q-139 4 -219 -118t-86 -344 q-7 -269 186 -273zM726 1536h285l-316 -303h-206z" />
<glyph unicode="&#x108;" horiz-adv-x="1307" d="M1194 475q-37 -228 -205 -363.5t-409 -131.5q-139 3 -243.5 66t-163.5 183.5t-66 272.5q-6 114 28 310.5t130.5 352.5t237 235t312.5 76q217 -4 343.5 -136.5t134.5 -365.5h-245q-5 156 -65.5 225.5t-179.5 72.5q-163 5 -273 -117t-148 -355l-20 -133l-9 -102 q-8 -103 14.5 -193.5t79.5 -138t145 -50.5q279 -11 358 290zM1171 1593v-17l-185 3l-117 155l-173 -154l-193 -4l-1 18l301 274h136z" />
<glyph unicode="&#x109;" horiz-adv-x="1050" d="M488 173q85 -2 150.5 49.5t83.5 134.5l224 1q-11 -107 -77.5 -195t-170.5 -137t-217 -46q-139 2 -237 72t-143 193.5t-30 275.5l3 35q17 157 91.5 284.5t192.5 196.5t262 65q176 -4 281 -116.5t105 -292.5h-222q0 93 -45.5 152t-131.5 63q-139 4 -219 -118t-86 -344 q-7 -269 186 -273zM956 1262v-17l-185 3l-117 155l-173 -154l-193 -4l-1 18l301 274h136z" />
<glyph unicode="&#x10a;" horiz-adv-x="1307" d="M1194 475q-37 -228 -205 -363.5t-409 -131.5q-139 3 -243.5 66t-163.5 183.5t-66 272.5q-6 114 28 310.5t130.5 352.5t237 235t312.5 76q217 -4 343.5 -136.5t134.5 -365.5h-245q-5 156 -65.5 225.5t-179.5 72.5q-163 5 -273 -117t-148 -355l-20 -133l-9 -102 q-8 -103 14.5 -193.5t79.5 -138t145 -50.5q279 -11 358 290zM727 1705q0 56 35.5 91.5t90.5 37.5t92 -32.5t37 -88.5q0 -57 -35.5 -91t-90.5 -36q-54 -2 -91.5 32.5t-37.5 86.5z" />
<glyph unicode="&#x10b;" horiz-adv-x="1050" d="M488 173q85 -2 150.5 49.5t83.5 134.5l224 1q-11 -107 -77.5 -195t-170.5 -137t-217 -46q-139 2 -237 72t-143 193.5t-30 275.5l3 35q17 157 91.5 284.5t192.5 196.5t262 65q176 -4 281 -116.5t105 -292.5h-222q0 93 -45.5 152t-131.5 63q-139 4 -219 -118t-86 -344 q-7 -269 186 -273zM512 1374q0 56 35.5 91.5t90.5 37.5t92 -32.5t37 -88.5q0 -57 -35.5 -91t-90.5 -36q-54 -2 -91.5 32.5t-37.5 86.5z" />
<glyph unicode="&#x10c;" horiz-adv-x="1307" d="M1194 475q-37 -228 -205 -363.5t-409 -131.5q-139 3 -243.5 66t-163.5 183.5t-66 272.5q-6 114 28 310.5t130.5 352.5t237 235t312.5 76q217 -4 343.5 -136.5t134.5 -365.5h-245q-5 156 -65.5 225.5t-179.5 72.5q-163 5 -273 -117t-148 -355l-20 -133l-9 -102 q-8 -103 14.5 -193.5t79.5 -138t145 -50.5q279 -11 358 290zM845 1714l169 153l209 4v-16l-308 -276h-146l-233 277v16l196 -4z" />
<glyph unicode="&#x10d;" horiz-adv-x="1050" d="M488 173q85 -2 150.5 49.5t83.5 134.5l224 1q-11 -107 -77.5 -195t-170.5 -137t-217 -46q-139 2 -237 72t-143 193.5t-30 275.5l3 35q17 157 91.5 284.5t192.5 196.5t262 65q176 -4 281 -116.5t105 -292.5h-222q0 93 -45.5 152t-131.5 63q-139 4 -219 -118t-86 -344 q-7 -269 186 -273zM630 1383l169 153l209 4v-16l-308 -276h-146l-233 277v16l196 -4z" />
<glyph unicode="&#x10e;" horiz-adv-x="1308" d="M39 0l252 1456l394 -1q182 0 313.5 -90.5t190.5 -250t36 -351.5l-11 -79q-30 -201 -132.5 -356.5t-264.5 -241.5t-356 -86h-422zM503 1252l-182 -1050l146 -1q198 0 328.5 125.5t167.5 346.5q26 152 19 265q-9 145 -84.5 227t-209.5 86zM733 1700l169 153l209 4v-16 l-308 -276h-146l-233 277v16l196 -4z" />
<glyph unicode="&#x10f;" horiz-adv-x="1281" d="M68 542q20 167 90 300t173 198.5t229 62.5q165 -4 258 -123l104 556h238l-267 -1536h-212l16 112q-126 -137 -296 -133q-151 2 -241.5 116.5t-97.5 304.5q-3 62 3 121zM298 449q-7 -124 38.5 -197t135.5 -75q137 -4 237 133l81 465q-47 125 -182 129q-136 4 -219 -120 t-91 -335zM1289 1123l-123 79q95 133 116 253l15 83h196l-13 -86q-36 -197 -191 -329z" />
<glyph unicode="&#x110;" horiz-adv-x="1338" d="M69 0l113 652h-183l30 170h182l110 634l394 -1q182 0 313.5 -90.5t190.5 -250t36 -351.5l-11 -79q-30 -201 -132.5 -356.5t-264.5 -241.5t-356 -86h-422zM650 652h-221l-78 -450l146 -1q198 0 328.5 125.5t167.5 346.5q26 152 19 265q-9 145 -84.5 227t-209.5 86l-185 1 l-75 -430h222z" />
<glyph unicode="&#x111;" horiz-adv-x="1233" d="M1275 1224h-169l-213 -1224h-212l16 112q-127 -136 -296 -132q-99 1 -174.5 53.5t-118 151.5t-46.5 219q-3 56 5 144q20 162 90.5 295t174 198t228.5 62q164 -4 258 -122l51 243h-245l30 170h243l26 142h237l-25 -142h170zM302 521q-6 -51 -5 -110q0 -105 45 -169 t129 -66q137 -4 238 134l81 465q-47 124 -183 128q-118 3 -197.5 -90t-107.5 -292z" />
<glyph unicode="&#x112;" horiz-adv-x="1133" d="M979 650h-580l-78 -448h678l-35 -202h-925l252 1456h919l-36 -204h-671l-70 -402h581zM1120 1613h-669l26 158h668z" />
<glyph unicode="&#x113;" horiz-adv-x="1076" d="M506 -20q-141 3 -244.5 71t-153 186t-37.5 263l3 41q18 165 96.5 296.5t195.5 199.5t254 65q203 -4 304.5 -151t76.5 -383l-14 -104h-681q-9 -129 52 -208t168 -81q153 -5 282 133l120 -126q-68 -97 -179 -150.5t-243 -51.5zM607 908q-188 6 -282 -266l449 -1l4 21 q7 46 1 90q-11 71 -56 112t-116 44zM985 1296h-669l26 158h668z" />
<glyph unicode="&#x114;" horiz-adv-x="1133" d="M979 650h-580l-78 -448h678l-35 -202h-925l252 1456h919l-36 -204h-671l-70 -402h581zM1124 1828q-10 -133 -103 -210t-228 -73q-132 2 -211.5 78.5t-79.5 204.5l176 -1q-5 -140 115 -140q67 0 105 39t50 100z" />
<glyph unicode="&#x115;" horiz-adv-x="1076" d="M506 -20q-141 3 -244.5 71t-153 186t-37.5 263l3 41q18 165 96.5 296.5t195.5 199.5t254 65q203 -4 304.5 -151t76.5 -383l-14 -104h-681q-9 -129 52 -208t168 -81q153 -5 282 133l120 -126q-68 -97 -179 -150.5t-243 -51.5zM607 908q-188 6 -282 -266l449 -1l4 21 q7 46 1 90q-11 71 -56 112t-116 44zM989 1511q-10 -133 -103 -210t-228 -73q-132 2 -211.5 78.5t-79.5 204.5l176 -1q-5 -140 115 -140q67 0 105 39t50 100z" />
<glyph unicode="&#x116;" horiz-adv-x="1133" d="M979 650h-580l-78 -448h678l-35 -202h-925l252 1456h919l-36 -204h-671l-70 -402h581zM669 1691q0 56 35.5 91.5t90.5 37.5t92 -32.5t37 -88.5q0 -57 -35.5 -91t-90.5 -36q-54 -2 -91.5 32.5t-37.5 86.5z" />
<glyph unicode="&#x117;" horiz-adv-x="1076" d="M506 -20q-141 3 -244.5 71t-153 186t-37.5 263l3 41q18 165 96.5 296.5t195.5 199.5t254 65q203 -4 304.5 -151t76.5 -383l-14 -104h-681q-9 -129 52 -208t168 -81q153 -5 282 133l120 -126q-68 -97 -179 -150.5t-243 -51.5zM607 908q-188 6 -282 -266l449 -1l4 21 q7 46 1 90q-11 71 -56 112t-116 44zM534 1374q0 56 35.5 91.5t90.5 37.5t92 -32.5t37 -88.5q0 -57 -35.5 -91t-90.5 -36q-54 -2 -91.5 32.5t-37.5 86.5z" />
<glyph unicode="&#x118;" horiz-adv-x="1133" d="M979 650h-580l-78 -448h678l-35 -202h-113l5 -3l-47 -31q-131 -86 -138 -172q-5 -57 51 -60q27 -1 88 22l12 -144q-69 -43 -154 -41q-87 0 -139.5 54.5t-50.5 138.5q3 140 153 236h-592l252 1456h919l-36 -204h-671l-70 -402h581z" />
<glyph unicode="&#x119;" horiz-adv-x="1076" d="M934 182q-85 -120 -226 -170l-49 -33q-109 -76 -117 -158q-5 -57 51 -60q27 -1 88 22l12 -144q-69 -43 -154 -41q-87 0 -139.5 54.5t-50.5 138.5q2 109 98 194q-183 25 -285 167t-85 348l3 41q18 165 96.5 296.5t195.5 199.5t254 65q203 -4 304.5 -151t76.5 -383 l-14 -104h-681q-9 -129 52 -208t168 -81q153 -5 282 133zM613 908q-188 6 -282 -266l449 -1l4 21q7 46 1 90q-11 71 -56 112t-116 44z" />
<glyph unicode="&#x11a;" horiz-adv-x="1133" d="M979 650h-580l-78 -448h678l-35 -202h-925l252 1456h919l-36 -204h-671l-70 -402h581zM787 1700l169 153l209 4v-16l-308 -276h-146l-233 277v16l196 -4z" />
<glyph unicode="&#x11b;" horiz-adv-x="1076" d="M506 -20q-141 3 -244.5 71t-153 186t-37.5 263l3 41q18 165 96.5 296.5t195.5 199.5t254 65q203 -4 304.5 -151t76.5 -383l-14 -104h-681q-9 -129 52 -208t168 -81q153 -5 282 133l120 -126q-68 -97 -179 -150.5t-243 -51.5zM607 908q-188 6 -282 -266l449 -1l4 21 q7 46 1 90q-11 71 -56 112t-116 44zM652 1383l169 153l209 4v-16l-308 -276h-146l-233 277v16l196 -4z" />
<glyph unicode="&#x11c;" horiz-adv-x="1362" d="M1168 189q-80 -104 -226 -157.5t-326 -51.5q-144 1 -254 64.5t-174.5 185t-73.5 276.5q-7 120 25 306t114.5 330.5t200.5 226.5q160 111 366 107q219 -4 342.5 -126t139.5 -342l-239 1q-22 257 -249 264q-170 5 -279.5 -119.5t-149.5 -359.5q-23 -137 -25 -224 q-6 -179 65.5 -282t208.5 -105q175 -4 288 87l54 285h-292l34 192h535zM1168 1593v-17l-185 3l-117 155l-173 -154l-193 -4l-1 18l301 274h136z" />
<glyph unicode="&#x11d;" horiz-adv-x="1136" d="M70 542q19 162 87.5 293t172.5 200.5t238 67.5q178 -4 269 -131l37 111l216 -1l-179 -1052q-30 -212 -178.5 -337.5t-361.5 -119.5q-114 2 -216 52t-164 132l126 143q95 -131 248 -135q116 -4 199.5 63.5t111.5 192.5l17 76q-125 -121 -284 -117q-152 2 -243.5 115 t-100.5 304q-3 60 5 143zM305 521q-6 -51 -4 -110q2 -106 48 -168t131 -65q135 -5 236 125l85 478q-52 119 -185 123q-120 3 -202 -93t-107 -269zM989 1262v-17l-185 3l-117 155l-173 -154l-193 -4l-1 18l301 274h136z" />
<glyph unicode="&#x11e;" horiz-adv-x="1362" d="M1168 189q-80 -104 -226 -157.5t-326 -51.5q-144 1 -254 64.5t-174.5 185t-73.5 276.5q-7 120 25 306t114.5 330.5t200.5 226.5q160 111 366 107q219 -4 342.5 -126t139.5 -342l-239 1q-22 257 -249 264q-170 5 -279.5 -119.5t-149.5 -359.5q-23 -137 -25 -224 q-6 -179 65.5 -282t208.5 -105q175 -4 288 87l54 285h-292l34 192h535zM1179 1842q-10 -133 -103 -210t-228 -73q-132 2 -211.5 78.5t-79.5 204.5l176 -1q-5 -140 115 -140q67 0 105 39t50 100z" />
<glyph unicode="&#x11f;" horiz-adv-x="1136" d="M70 542q19 162 87.5 293t172.5 200.5t238 67.5q178 -4 269 -131l37 111l216 -1l-179 -1052q-30 -212 -178.5 -337.5t-361.5 -119.5q-114 2 -216 52t-164 132l126 143q95 -131 248 -135q116 -4 199.5 63.5t111.5 192.5l17 76q-125 -121 -284 -117q-152 2 -243.5 115 t-100.5 304q-3 60 5 143zM305 521q-6 -51 -4 -110q2 -106 48 -168t131 -65q135 -5 236 125l85 478q-52 119 -185 123q-120 3 -202 -93t-107 -269zM1000 1511q-10 -133 -103 -210t-228 -73q-132 2 -211.5 78.5t-79.5 204.5l176 -1q-5 -140 115 -140q67 0 105 39t50 100z" />
<glyph unicode="&#x120;" horiz-adv-x="1362" d="M1168 189q-80 -104 -226 -157.5t-326 -51.5q-144 1 -254 64.5t-174.5 185t-73.5 276.5q-7 120 25 306t114.5 330.5t200.5 226.5q160 111 366 107q219 -4 342.5 -126t139.5 -342l-239 1q-22 257 -249 264q-170 5 -279.5 -119.5t-149.5 -359.5q-23 -137 -25 -224 q-6 -179 65.5 -282t208.5 -105q175 -4 288 87l54 285h-292l34 192h535zM724 1705q0 56 35.5 91.5t90.5 37.5t92 -32.5t37 -88.5q0 -57 -35.5 -91t-90.5 -36q-54 -2 -91.5 32.5t-37.5 86.5z" />
<glyph unicode="&#x121;" horiz-adv-x="1136" d="M70 542q19 162 87.5 293t172.5 200.5t238 67.5q178 -4 269 -131l37 111l216 -1l-179 -1052q-30 -212 -178.5 -337.5t-361.5 -119.5q-114 2 -216 52t-164 132l126 143q95 -131 248 -135q116 -4 199.5 63.5t111.5 192.5l17 76q-125 -121 -284 -117q-152 2 -243.5 115 t-100.5 304q-3 60 5 143zM305 521q-6 -51 -4 -110q2 -106 48 -168t131 -65q135 -5 236 125l85 478q-52 119 -185 123q-120 3 -202 -93t-107 -269zM545 1374q0 56 35.5 91.5t90.5 37.5t92 -32.5t37 -88.5q0 -57 -35.5 -91t-90.5 -36q-54 -2 -91.5 32.5t-37.5 86.5z" />
<glyph unicode="&#x122;" horiz-adv-x="1362" d="M1168 189q-80 -104 -226 -157.5t-326 -51.5q-144 1 -254 64.5t-174.5 185t-73.5 276.5q-7 120 25 306t114.5 330.5t200.5 226.5q160 111 366 107q219 -4 342.5 -126t139.5 -342l-239 1q-22 257 -249 264q-170 5 -279.5 -119.5t-149.5 -359.5q-23 -137 -25 -224 q-6 -179 65.5 -282t208.5 -105q175 -4 288 87l54 285h-292l34 192h535zM478 -525l-123 79q95 133 116 253l15 83h196l-13 -86q-36 -197 -191 -329z" />
<glyph unicode="&#x123;" horiz-adv-x="1136" d="M70 542q19 162 87.5 293t172.5 200.5t238 67.5q178 -4 269 -131l37 111l216 -1l-179 -1052q-30 -212 -178.5 -337.5t-361.5 -119.5q-114 2 -216 52t-164 132l126 143q95 -131 248 -135q116 -4 199.5 63.5t111.5 192.5l17 76q-125 -121 -284 -117q-152 2 -243.5 115 t-100.5 304q-3 60 5 143zM305 521q-6 -51 -4 -110q2 -106 48 -168t131 -65q135 -5 236 125l85 478q-52 119 -185 123q-120 3 -202 -93t-107 -269zM745 1707l129 -87q-81 -125 -103 -243l-22 -122h-206l17 119q31 215 185 333z" />
<glyph unicode="&#x124;" horiz-adv-x="1421" d="M1162 0h-246l112 647h-630l-112 -647h-247l253 1456h247l-106 -606h630l105 606h247zM1201 1579v-17l-185 3l-117 155l-173 -154l-193 -4l-1 18l301 274h136z" />
<glyph unicode="&#x125;" horiz-adv-x="1113" d="M407 963q135 142 307 138q154 -2 228.5 -109t55.5 -296l-116 -696h-237l118 699q5 43 2 80q-13 122 -144 125q-132 2 -236 -130l-135 -774h-237l266 1536h238zM1009 1611v-17l-185 3l-117 155l-173 -154l-193 -4l-1 18l301 274h136z" />
<glyph unicode="&#x126;" horiz-adv-x="1422" d="M1375 1198h124l-29 -162h-123l-179 -1036h-246l112 647h-630l-112 -647h-246l179 1036h-120l28 162h120l45 258h247l-46 -258h630l45 258h246zM439 850h630l33 186h-630z" />
<glyph unicode="&#x127;" horiz-adv-x="1143" d="M715 1223h-228l-50 -260q135 142 307 138q154 -2 228.5 -109t55.5 -296l-116 -696h-237l118 699q5 43 2 80q-13 122 -144 125q-132 2 -236 -130l-135 -774h-237l212 1223h-191l30 170h190l25 143h238l-28 -143h226z" />
<glyph unicode="&#x128;" horiz-adv-x="571" d="M299 0h-246l253 1456h246zM842 1831q-12 -119 -76.5 -189t-158.5 -70q-24 0 -46.5 7t-76 37.5t-79.5 40t-55 8.5q-79 -3 -106 -104l-149 8q10 114 75 189.5t161 73.5q48 -1 123 -45.5t109 -48.5l25 -1q81 3 109 105z" />
<glyph unicode="&#x129;" horiz-adv-x="532" d="M271 0h-237l188 1082h237zM767 1507q-12 -119 -76.5 -189t-158.5 -70q-24 0 -46.5 7t-76 37.5t-79.5 40t-55 8.5q-79 -3 -106 -104l-149 8q10 114 75 189.5t161 73.5q48 -1 123 -45.5t109 -48.5l25 -1q81 3 109 105z" />
<glyph unicode="&#x12a;" horiz-adv-x="571" d="M299 0h-246l253 1456h246zM793 1613h-669l26 158h668z" />
<glyph unicode="&#x12b;" horiz-adv-x="532" d="M271 0h-237l188 1082h237zM718 1289h-669l26 158h668z" />
<glyph unicode="&#x12c;" horiz-adv-x="571" d="M299 0h-246l253 1456h246zM797 1828q-10 -133 -103 -210t-228 -73q-132 2 -211.5 78.5t-79.5 204.5l176 -1q-5 -140 115 -140q67 0 105 39t50 100z" />
<glyph unicode="&#x12d;" horiz-adv-x="532" d="M271 0h-237l188 1082h237zM722 1504q-10 -133 -103 -210t-228 -73q-132 2 -211.5 78.5t-79.5 204.5l176 -1q-5 -140 115 -140q67 0 105 39t50 100z" />
<glyph unicode="&#x12e;" horiz-adv-x="571" d="M299 0h-246l253 1456h246zM266 3l-47 -31q-131 -86 -138 -172q-5 -57 51 -60q27 -1 88 22l12 -144q-69 -43 -154 -41q-87 0 -139.5 54.5t-50.5 138.5q3 179 267 297z" />
<glyph unicode="&#x12f;" horiz-adv-x="517" d="M268 0h-237l188 1082h237zM253 1359q0 55 36 94t97 41q58 2 96.5 -35.5t38.5 -91.5q0 -57 -37.5 -94t-95.5 -39q-57 -2 -96 34.5t-39 90.5zM242 -3l-47 -31q-131 -86 -138 -172q-5 -57 51 -60q27 -1 88 22l12 -144q-69 -43 -154 -41q-87 0 -139.5 54.5t-50.5 138.5 q3 179 267 297z" />
<glyph unicode="&#x130;" horiz-adv-x="571" d="M299 0h-246l253 1456h246zM341 1691q0 56 35.5 91.5t90.5 37.5t92 -32.5t37 -88.5q0 -57 -35.5 -91t-90.5 -36q-54 -2 -91.5 32.5t-37.5 86.5z" />
<glyph unicode="&#x131;" horiz-adv-x="532" d="M271 0h-237l188 1082h237z" />
<glyph unicode="&#x132;" horiz-adv-x="1684" d="M299 0h-246l253 1456h246zM1446 1456h246l-174 -1021q-31 -212 -173.5 -336t-351.5 -120q-204 4 -311.5 121t-97.5 316l246 -1q-14 -229 178 -233q100 -4 171.5 63t92.5 189z" />
<glyph unicode="&#x133;" horiz-adv-x="1025" d="M268 0h-237l188 1082h237zM253 1359q0 55 36 94t97 41q58 2 96.5 -35.5t38.5 -91.5q0 -57 -37.5 -94t-95.5 -39q-57 -2 -96 34.5t-39 90.5zM968 1082l-199 -1177q-22 -168 -116 -257.5t-245 -87.5q-64 2 -135 19l20 192q46 -11 84 -11q127 0 153 149l201 1173h237z M760 1359q0 58 36 95.5t96 39.5q58 2 96.5 -34.5t38.5 -92.5q0 -57 -37.5 -94t-95.5 -39q-60 0 -97 35.5t-37 89.5z" />
<glyph unicode="&#x134;" horiz-adv-x="1113" d="M875 1456h246l-174 -1021q-31 -212 -173.5 -336t-351.5 -120q-204 4 -311.5 121t-97.5 316l246 -1q-14 -229 178 -233q100 -4 171.5 63t92.5 189zM1329 1572v-17l-185 3l-117 155l-173 -154l-193 -4l-1 18l301 274h136z" />
<glyph unicode="&#x135;" horiz-adv-x="544" d="M476 1082l-195 -1144q-24 -181 -126 -279.5t-265 -98.5q-61 0 -131 17l31 193q53 -16 95 -16q127 0 160 194l194 1134h237zM711 1228v-17l-185 3l-117 155l-173 -154l-193 -4l-1 18l301 274h136z" />
<glyph unicode="&#x136;" horiz-adv-x="1262" d="M563 627l-200 -183l-77 -444h-247l253 1456h247l-117 -669l153 159l502 510h316l-648 -657l409 -799h-276zM425 -444l-123 79q95 133 116 253l15 83h196l-13 -86q-36 -197 -191 -329z" />
<glyph unicode="&#x137;" horiz-adv-x="1047" d="M447 462l-134 -119l-59 -343h-237l266 1536h237l-152 -872l83 86l344 332h303l-480 -462l316 -620h-257zM312 -465l-123 79q95 133 116 253l15 83h196l-13 -86q-36 -197 -191 -329z" />
<glyph unicode="&#x138;" horiz-adv-x="1151" d="M459 428h-115l-75 -428h-236l188 1082h236l-75 -432h72l401 432h310l-505 -537l325 -545h-283z" />
<glyph unicode="&#x139;" horiz-adv-x="1085" d="M321 202h642l-36 -202h-888l253 1456h247zM543 1846h285l-316 -303h-206z" />
<glyph unicode="&#x13a;" horiz-adv-x="517" d="M268 0h-237l267 1536h237zM544 1937h285l-316 -303h-206z" />
<glyph unicode="&#x13b;" horiz-adv-x="1085" d="M321 202h642l-36 -202h-888l253 1456h247zM367 -509l-123 79q95 133 116 253l15 83h196l-13 -86q-36 -197 -191 -329z" />
<glyph unicode="&#x13c;" horiz-adv-x="517" d="M268 0h-237l267 1536h237zM29 -509l-123 79q95 133 116 253l15 83h196l-13 -86q-36 -197 -191 -329z" />
<glyph unicode="&#x13d;" horiz-adv-x="1085" d="M321 202h642l-36 -202h-888l253 1456h247zM787 1042l-123 79q95 133 116 253l15 83h196l-13 -86q-36 -197 -191 -329z" />
<glyph unicode="&#x13e;" horiz-adv-x="667" d="M268 0h-237l267 1536h237zM680 1123l-123 79q95 133 116 253l15 83h196l-13 -86q-36 -197 -191 -329z" />
<glyph unicode="&#x13f;" horiz-adv-x="1085" d="M321 202h642l-36 -202h-888l253 1456h247zM606 809q0 56 35.5 91.5t90.5 37.5t92 -32.5t37 -88.5q0 -57 -35.5 -91t-90.5 -36q-54 -2 -91.5 32.5t-37.5 86.5z" />
<glyph unicode="&#x140;" horiz-adv-x="737" d="M268 0h-237l267 1536h237zM500 772q0 56 35.5 91.5t90.5 37.5t92 -32.5t37 -88.5q0 -57 -35.5 -91t-90.5 -36q-54 -2 -91.5 32.5t-37.5 86.5z" />
<glyph unicode="&#x141;" horiz-adv-x="1100" d="M453 876l240 70l-28 -155l-239 -71l-90 -518h642l-35 -202h-889l112 642l-133 -38l27 155l133 39l114 658h247z" />
<glyph unicode="&#x142;" horiz-adv-x="583" d="M450 895l153 52l-28 -156l-152 -53l-128 -738h-238l114 651l-140 -47l28 156l138 47l127 729h237z" />
<glyph unicode="&#x143;" horiz-adv-x="1420" d="M1161 0h-239l-455 1043l-181 -1043h-247l253 1456h239l455 -1047l182 1047h246zM979 1846h285l-316 -303h-206z" />
<glyph unicode="&#x144;" horiz-adv-x="1115" d="M423 1083l-24 -127q139 150 321 146q152 -3 225 -108.5t54 -294.5l-117 -699h-237l118 702q5 43 1 80q-13 119 -142 122q-135 2 -237 -133l-135 -771h-237l187 1082zM777 1536h285l-316 -303h-206z" />
<glyph unicode="&#x145;" horiz-adv-x="1420" d="M1161 0h-239l-455 1043l-181 -1043h-247l253 1456h239l455 -1047l182 1047h246zM474 -513l-123 79q95 133 116 253l15 83h196l-13 -86q-36 -197 -191 -329z" />
<glyph unicode="&#x146;" horiz-adv-x="1115" d="M423 1083l-24 -127q139 150 321 146q152 -3 225 -108.5t54 -294.5l-117 -699h-237l118 702q5 43 1 80q-13 119 -142 122q-135 2 -237 -133l-135 -771h-237l187 1082zM324 -509l-123 79q95 133 116 253l15 83h196l-13 -86q-36 -197 -191 -329z" />
<glyph unicode="&#x147;" horiz-adv-x="1420" d="M1161 0h-239l-455 1043l-181 -1043h-247l253 1456h239l455 -1047l182 1047h246zM883 1693l169 153l209 4v-16l-308 -276h-146l-233 277v16l196 -4z" />
<glyph unicode="&#x148;" horiz-adv-x="1115" d="M423 1083l-24 -127q139 150 321 146q152 -3 225 -108.5t54 -294.5l-117 -699h-237l118 702q5 43 1 80q-13 119 -142 122q-135 2 -237 -133l-135 -771h-237l187 1082zM681 1383l169 153l209 4v-16l-308 -276h-146l-233 277v16l196 -4z" />
<glyph unicode="&#x149;" horiz-adv-x="1115" d="M423 1083l-24 -127q139 150 321 146q152 -3 225 -108.5t54 -294.5l-117 -699h-237l118 702q5 43 1 80q-13 119 -142 122q-135 2 -237 -133l-135 -771h-237l187 1082zM138 1124l-123 79q95 133 116 253l15 83h196l-13 -86q-36 -197 -191 -329z" />
<glyph unicode="&#x14a;" horiz-adv-x="1394" d="M1400 1456l-257 -1512q-24 -182 -131.5 -284t-272.5 -100q-59 0 -135 20l35 198q54 -14 95 -14q129 0 163 196l7 40l-440 1055l-183 -1055h-246l253 1456h238l443 -1054l183 1054h248z" />
<glyph unicode="&#x14b;" horiz-adv-x="1135" d="M421 1083l-23 -152q134 175 321 171q161 -3 236 -118t53 -311l-118 -736q-24 -181 -128 -280t-267 -97q-65 1 -133 20l35 197q57 -15 96 -15q129 0 160 187l118 723q5 45 3 86q-7 140 -146 145q-131 4 -232 -102l-141 -801h-238l188 1082z" />
<glyph unicode="&#x14c;" horiz-adv-x="1382" d="M599 -20q-142 3 -249.5 68t-167.5 188.5t-68 280.5q-7 125 22.5 292t105 304.5t180.5 224.5q173 142 400 138q216 -4 344.5 -149t140.5 -392q6 -124 -22.5 -284.5t-98 -295t-172.5 -224.5q-178 -156 -415 -151zM1054 767l9 106q6 109 -19 201.5t-84.5 141t-150.5 51.5 q-126 4 -223.5 -71t-158 -228t-70.5 -384q-10 -183 56 -288t198 -109q173 -5 285.5 130t147.5 380zM1199 1606h-669l26 158h668z" />
<glyph unicode="&#x14d;" horiz-adv-x="1141" d="M73 545q17 159 93.5 289t196.5 201t266 67q139 -2 240 -74t147.5 -197t32.5 -278q-16 -172 -93.5 -304t-198 -202.5t-267.5 -66.5q-138 2 -238.5 73.5t-147.5 196t-34 274.5zM306 408q5 -105 55.5 -168.5t140.5 -66.5q122 -3 204.5 94t103.5 265l6 98q0 128 -51 201 t-148 77q-152 4 -240 -149q-53 -93 -67 -214q-8 -84 -4 -137zM1005 1296h-669l26 158h668z" />
<glyph unicode="&#x14e;" horiz-adv-x="1382" d="M599 -20q-142 3 -249.5 68t-167.5 188.5t-68 280.5q-7 125 22.5 292t105 304.5t180.5 224.5q173 142 400 138q216 -4 344.5 -149t140.5 -392q6 -124 -22.5 -284.5t-98 -295t-172.5 -224.5q-178 -156 -415 -151zM1054 767l9 106q6 109 -19 201.5t-84.5 141t-150.5 51.5 q-126 4 -223.5 -71t-158 -228t-70.5 -384q-10 -183 56 -288t198 -109q173 -5 285.5 130t147.5 380zM1203 1821q-10 -133 -103 -210t-228 -73q-132 2 -211.5 78.5t-79.5 204.5l176 -1q-5 -140 115 -140q67 0 105 39t50 100z" />
<glyph unicode="&#x14f;" horiz-adv-x="1141" d="M73 545q17 159 93.5 289t196.5 201t266 67q139 -2 240 -74t147.5 -197t32.5 -278q-16 -172 -93.5 -304t-198 -202.5t-267.5 -66.5q-138 2 -238.5 73.5t-147.5 196t-34 274.5zM306 408q5 -105 55.5 -168.5t140.5 -66.5q122 -3 204.5 94t103.5 265l6 98q0 128 -51 201 t-148 77q-152 4 -240 -149q-53 -93 -67 -214q-8 -84 -4 -137zM1009 1511q-10 -133 -103 -210t-228 -73q-132 2 -211.5 78.5t-79.5 204.5l176 -1q-5 -140 115 -140q67 0 105 39t50 100z" />
<glyph unicode="&#x150;" horiz-adv-x="1382" d="M599 -20q-142 3 -249.5 68t-167.5 188.5t-68 280.5q-7 125 22.5 292t105 304.5t180.5 224.5q173 142 400 138q216 -4 344.5 -149t140.5 -392q6 -124 -22.5 -284.5t-98 -295t-172.5 -224.5q-178 -156 -415 -151zM1054 767l9 106q6 109 -19 201.5t-84.5 141t-150.5 51.5 q-126 4 -223.5 -71t-158 -228t-70.5 -384q-10 -183 56 -288t198 -109q173 -5 285.5 130t147.5 380zM1149 1845h250l-311 -302h-210zM792 1845h243l-268 -302h-197z" />
<glyph unicode="&#x151;" horiz-adv-x="1141" d="M73 545q17 159 93.5 289t196.5 201t266 67q139 -2 240 -74t147.5 -197t32.5 -278q-16 -172 -93.5 -304t-198 -202.5t-267.5 -66.5q-138 2 -238.5 73.5t-147.5 196t-34 274.5zM306 408q5 -105 55.5 -168.5t140.5 -66.5q122 -3 204.5 94t103.5 265l6 98q0 128 -51 201 t-148 77q-152 4 -240 -149q-53 -93 -67 -214q-8 -84 -4 -137zM955 1535h250l-311 -302h-210zM598 1535h243l-268 -302h-197z" />
<glyph unicode="&#x152;" horiz-adv-x="1923" d="M1684 0h-827l-196 -17l-87 -1q-158 4 -273.5 82.5t-168 214.5t-32.5 297l50 317q28 169 118.5 303.5t228 207.5t302.5 73l74 -2l207 -19h850l-36 -204h-671l-70 -402h581l-36 -200h-579l-78 -448h678zM583 177q79 -3 202 9l198 1083q-115 14 -191 16q-160 2 -269 -106.5 t-139 -302.5l-47 -301q-9 -72 -3 -142q8 -116 72.5 -184t176.5 -72z" />
<glyph unicode="&#x153;" horiz-adv-x="1805" d="M84 544q20 161 96 291t195 200t267 68q114 -2 205.5 -49t140.5 -128q166 180 372 176q195 -4 295.5 -138.5t74.5 -349.5l-22 -143h-656q-13 -133 40.5 -212.5t157.5 -82.5q154 -5 308 90l65 -160q-67 -62 -169 -94.5t-225 -30.5q-118 2 -208.5 48t-139.5 124 q-166 -177 -395 -173q-138 2 -235 73t-141 195.5t-28 274.5zM318 523l-5 -75l1 -46q14 -223 186 -230q123 -3 205 96t103 264l7 97v29q-8 242 -188 250q-114 3 -194 -85.5t-108 -252.5zM1344 909q-82 1 -148.5 -60t-120.5 -201h423l5 28q7 45 2 86q-8 67 -49.5 105.5 t-111.5 41.5z" />
<glyph unicode="&#x154;" horiz-adv-x="1250" d="M662 561h-278l-98 -561h-247l253 1456l459 -1q237 0 363 -114t109 -317q-11 -141 -94 -244.5t-233 -162.5l215 -602l-1 -15h-262zM418 764l239 -2q129 0 215.5 67.5t101.5 183.5q15 113 -40 173.5t-167 64.5l-264 1zM861 1846h285l-316 -303h-206z" />
<glyph unicode="&#x155;" horiz-adv-x="708" d="M724 860q-46 10 -93 10q-156 4 -248 -129l-130 -741h-237l187 1082l225 1l-24 -123q111 147 256 144q33 0 91 -15zM617 1536h285l-316 -303h-206z" />
<glyph unicode="&#x156;" horiz-adv-x="1250" d="M662 561h-278l-98 -561h-247l253 1456l459 -1q237 0 363 -114t109 -317q-11 -141 -94 -244.5t-233 -162.5l215 -602l-1 -15h-262zM418 764l239 -2q129 0 215.5 67.5t101.5 183.5q15 113 -40 173.5t-167 64.5l-264 1zM368 -509l-123 79q95 133 116 253l15 83h196l-13 -86 q-36 -197 -191 -329z" />
<glyph unicode="&#x157;" horiz-adv-x="708" d="M724 860q-46 10 -93 10q-156 4 -248 -129l-130 -741h-237l187 1082l225 1l-24 -123q111 147 256 144q33 0 91 -15zM23 -509l-123 79q95 133 116 253l15 83h196l-13 -86q-36 -197 -191 -329z" />
<glyph unicode="&#x158;" horiz-adv-x="1250" d="M662 561h-278l-98 -561h-247l253 1456l459 -1q237 0 363 -114t109 -317q-11 -141 -94 -244.5t-233 -162.5l215 -602l-1 -15h-262zM418 764l239 -2q129 0 215.5 67.5t101.5 183.5q15 113 -40 173.5t-167 64.5l-264 1zM765 1693l169 153l209 4v-16l-308 -276h-146l-233 277 v16l196 -4z" />
<glyph unicode="&#x159;" horiz-adv-x="708" d="M724 860q-46 10 -93 10q-156 4 -248 -129l-130 -741h-237l187 1082l225 1l-24 -123q111 147 256 144q33 0 91 -15zM522 1383l169 153l209 4v-16l-308 -276h-146l-233 277v16l196 -4z" />
<glyph unicode="&#x15a;" horiz-adv-x="1209" d="M844 382q22 144 -157 214l-81 30q-226 79 -321 187t-86 251q8 124 84.5 218.5t201.5 145.5t266 48q136 -3 242 -59.5t162 -157t52 -229.5l-246 1q7 114 -50.5 177t-173.5 66q-117 2 -197.5 -55t-94.5 -154q-20 -127 170 -200l75 -27q229 -82 320 -192.5t80 -261.5 q-10 -123 -81 -214.5t-196.5 -141.5t-276.5 -48q-143 1 -259.5 60t-178.5 163.5t-57 237.5l247 -1q-8 -124 61 -191t198 -69q120 -2 200.5 51t96.5 151zM889 1846h285l-316 -303h-206z" />
<glyph unicode="&#x15b;" horiz-adv-x="1035" d="M663 300q17 99 -128.5 137.5t-198.5 61.5q-206 88 -199 268q5 146 132.5 241.5t305.5 93.5q172 -2 280.5 -97t106.5 -249l-235 1q2 75 -41 117.5t-118 44.5q-79 0 -135.5 -39t-65.5 -102q-14 -91 128 -126.5t210 -65.5q198 -87 191 -272q-5 -103 -67.5 -179.5 t-167.5 -117t-223 -37.5q-177 2 -293.5 103t-114.5 259l229 -1q2 -87 52 -132t137 -46q88 0 146.5 36.5t68.5 100.5zM742 1536h285l-316 -303h-206z" />
<glyph unicode="&#x15c;" horiz-adv-x="1209" d="M844 382q22 144 -157 214l-81 30q-226 79 -321 187t-86 251q8 124 84.5 218.5t201.5 145.5t266 48q136 -3 242 -59.5t162 -157t52 -229.5l-246 1q7 114 -50.5 177t-173.5 66q-117 2 -197.5 -55t-94.5 -154q-20 -127 170 -200l75 -27q229 -82 320 -192.5t80 -261.5 q-10 -123 -81 -214.5t-196.5 -141.5t-276.5 -48q-143 1 -259.5 60t-178.5 163.5t-57 237.5l247 -1q-8 -124 61 -191t198 -69q120 -2 200.5 51t96.5 151zM1119 1572v-17l-185 3l-117 155l-173 -154l-193 -4l-1 18l301 274h136z" />
<glyph unicode="&#x15d;" horiz-adv-x="1035" d="M663 300q17 99 -128.5 137.5t-198.5 61.5q-206 88 -199 268q5 146 132.5 241.5t305.5 93.5q172 -2 280.5 -97t106.5 -249l-235 1q2 75 -41 117.5t-118 44.5q-79 0 -135.5 -39t-65.5 -102q-14 -91 128 -126.5t210 -65.5q198 -87 191 -272q-5 -103 -67.5 -179.5 t-167.5 -117t-223 -37.5q-177 2 -293.5 103t-114.5 259l229 -1q2 -87 52 -132t137 -46q88 0 146.5 36.5t68.5 100.5zM972 1262v-17l-185 3l-117 155l-173 -154l-193 -4l-1 18l301 274h136z" />
<glyph unicode="&#x15e;" horiz-adv-x="1209" d="M844 382q22 144 -157 214l-81 30q-226 79 -321 187t-86 251q8 124 84.5 218.5t201.5 145.5t266 48q136 -3 242 -59.5t162 -157t52 -229.5l-246 1q7 114 -50.5 177t-173.5 66q-117 2 -197.5 -55t-94.5 -154q-20 -127 170 -200l75 -27q229 -82 320 -192.5t80 -261.5 q-10 -123 -81 -214.5t-196.5 -141.5t-276.5 -48q-143 1 -259.5 60t-178.5 163.5t-57 237.5l247 -1q-8 -124 61 -191t198 -69q120 -2 200.5 51t96.5 151zM597 4l-19 -59q62 -14 93.5 -56.5t30.5 -105.5q-2 -109 -91 -168.5t-256 -65.5l2 141q137 6 153 96q9 60 -73 73l-56 6 l45 137z" />
<glyph unicode="&#x15f;" horiz-adv-x="1035" d="M663 300q17 99 -128.5 137.5t-198.5 61.5q-206 88 -199 268q5 146 132.5 241.5t305.5 93.5q172 -2 280.5 -97t106.5 -249l-235 1q2 75 -41 117.5t-118 44.5q-79 0 -135.5 -39t-65.5 -102q-14 -91 128 -126.5t210 -65.5q198 -87 191 -272q-5 -103 -67.5 -179.5 t-167.5 -117t-223 -37.5q-177 2 -293.5 103t-114.5 259l229 -1q2 -87 52 -132t137 -46q88 0 146.5 36.5t68.5 100.5zM519 -5l-19 -59q62 -14 93.5 -56.5t30.5 -105.5q-2 -109 -91 -168.5t-256 -65.5l2 141q137 6 153 96q9 60 -73 73l-56 6l45 137z" />
<glyph unicode="&#x160;" horiz-adv-x="1209" d="M844 382q22 144 -157 214l-81 30q-226 79 -321 187t-86 251q8 124 84.5 218.5t201.5 145.5t266 48q136 -3 242 -59.5t162 -157t52 -229.5l-246 1q7 114 -50.5 177t-173.5 66q-117 2 -197.5 -55t-94.5 -154q-20 -127 170 -200l75 -27q229 -82 320 -192.5t80 -261.5 q-10 -123 -81 -214.5t-196.5 -141.5t-276.5 -48q-143 1 -259.5 60t-178.5 163.5t-57 237.5l247 -1q-8 -124 61 -191t198 -69q120 -2 200.5 51t96.5 151zM793 1693l169 153l209 4v-16l-308 -276h-146l-233 277v16l196 -4z" />
<glyph unicode="&#x161;" horiz-adv-x="1035" d="M663 300q17 99 -128.5 137.5t-198.5 61.5q-206 88 -199 268q5 146 132.5 241.5t305.5 93.5q172 -2 280.5 -97t106.5 -249l-235 1q2 75 -41 117.5t-118 44.5q-79 0 -135.5 -39t-65.5 -102q-14 -91 128 -126.5t210 -65.5q198 -87 191 -272q-5 -103 -67.5 -179.5 t-167.5 -117t-223 -37.5q-177 2 -293.5 103t-114.5 259l229 -1q2 -87 52 -132t137 -46q88 0 146.5 36.5t68.5 100.5zM646 1383l169 153l209 4v-16l-308 -276h-146l-233 277v16l196 -4z" />
<glyph unicode="&#x162;" horiz-adv-x="1216" d="M1278 1252h-440l-217 -1252h-246l218 1252h-437l36 204h1122zM580 7l-19 -59q62 -14 93.5 -56.5t30.5 -105.5q-2 -109 -91 -168.5t-256 -65.5l2 141q137 6 153 96q9 60 -73 73l-56 6l45 137z" />
<glyph unicode="&#x163;" horiz-adv-x="671" d="M547 1345l-46 -263h185l-31 -180h-186l-102 -606q-3 -25 -1 -45q6 -65 80 -68q37 0 84 9l-16 -190q-74 -21 -149 -21q-124 2 -185.5 84.5t-48.5 218.5l101 618h-173l32 180h172l46 263h238zM410 4l-19 -59q62 -14 93.5 -56.5t30.5 -105.5q-2 -109 -91 -168.5t-256 -65.5 l2 141q137 6 153 96q9 60 -73 73l-56 6l45 137z" />
<glyph unicode="&#x164;" horiz-adv-x="1216" d="M1278 1252h-440l-217 -1252h-246l218 1252h-437l36 204h1122zM779 1693l169 153l209 4v-16l-308 -276h-146l-233 277v16l196 -4z" />
<glyph unicode="&#x165;" horiz-adv-x="711" d="M547 1345l-46 -263h185l-31 -180h-186l-102 -606q-3 -25 -1 -45q6 -65 80 -68q37 0 84 9l-16 -190q-74 -21 -149 -21q-124 2 -185.5 84.5t-48.5 218.5l101 618h-173l32 180h172l46 263h238zM764 1252l-123 79q95 133 116 253l15 83h196l-13 -86q-36 -197 -191 -329z" />
<glyph unicode="&#x166;" horiz-adv-x="1216" d="M958 786h-201l-136 -786h-246l137 786h-205l30 170h204l52 296h-437l36 204h1122l-36 -204h-440l-52 -296h202z" />
<glyph unicode="&#x167;" horiz-adv-x="671" d="M621 567h-209l-45 -271q-3 -25 -1 -45q6 -65 80 -68q37 0 84 9l-16 -190q-74 -21 -149 -21q-124 2 -185.5 84.5t-48.5 218.5l46 283h-207l30 170h205l27 165h-173l32 180h172l46 263h238l-46 -263h185l-31 -180h-186l-28 -165h210z" />
<glyph unicode="&#x168;" horiz-adv-x="1305" d="M1327 1456l-165 -973q-34 -233 -199.5 -371t-400.5 -134q-218 4 -344.5 132t-115.5 334l3 38l165 974h246l-165 -975q-18 -139 41 -217t182 -82q135 -4 225 73t115 221l167 980h246zM1208 1824q-12 -119 -76.5 -189t-158.5 -70q-24 0 -46.5 7t-76 37.5t-79.5 40t-55 8.5 q-79 -3 -106 -104l-149 8q10 114 75 189.5t161 73.5q48 -1 123 -45.5t109 -48.5l25 -1q81 3 109 105z" />
<glyph unicode="&#x169;" horiz-adv-x="1114" d="M685 107q-123 -131 -308 -127q-105 2 -174.5 52t-99 139.5t-17.5 210.5l117 700h237l-118 -703q-4 -37 -1 -72q10 -124 125 -129q157 -6 254 126l136 778h237l-187 -1082h-222zM1059 1514q-12 -119 -76.5 -189t-158.5 -70q-24 0 -46.5 7t-76 37.5t-79.5 40t-55 8.5 q-79 -3 -106 -104l-149 8q10 114 75 189.5t161 73.5q48 -1 123 -45.5t109 -48.5l25 -1q81 3 109 105z" />
<glyph unicode="&#x16a;" horiz-adv-x="1305" d="M1327 1456l-165 -973q-34 -233 -199.5 -371t-400.5 -134q-218 4 -344.5 132t-115.5 334l3 38l165 974h246l-165 -975q-18 -139 41 -217t182 -82q135 -4 225 73t115 221l167 980h246zM1159 1606h-669l26 158h668z" />
<glyph unicode="&#x16b;" horiz-adv-x="1114" d="M685 107q-123 -131 -308 -127q-105 2 -174.5 52t-99 139.5t-17.5 210.5l117 700h237l-118 -703q-4 -37 -1 -72q10 -124 125 -129q157 -6 254 126l136 778h237l-187 -1082h-222zM1010 1296h-669l26 158h668z" />
<glyph unicode="&#x16c;" horiz-adv-x="1305" d="M1327 1456l-165 -973q-34 -233 -199.5 -371t-400.5 -134q-218 4 -344.5 132t-115.5 334l3 38l165 974h246l-165 -975q-18 -139 41 -217t182 -82q135 -4 225 73t115 221l167 980h246zM1163 1821q-10 -133 -103 -210t-228 -73q-132 2 -211.5 78.5t-79.5 204.5l176 -1 q-5 -140 115 -140q67 0 105 39t50 100z" />
<glyph unicode="&#x16d;" horiz-adv-x="1114" d="M685 107q-123 -131 -308 -127q-105 2 -174.5 52t-99 139.5t-17.5 210.5l117 700h237l-118 -703q-4 -37 -1 -72q10 -124 125 -129q157 -6 254 126l136 778h237l-187 -1082h-222zM1014 1511q-10 -133 -103 -210t-228 -73q-132 2 -211.5 78.5t-79.5 204.5l176 -1 q-5 -140 115 -140q67 0 105 39t50 100z" />
<glyph unicode="&#x16e;" horiz-adv-x="1305" d="M1327 1456l-165 -973q-34 -233 -199.5 -371t-400.5 -134q-218 4 -344.5 132t-115.5 334l3 38l165 974h246l-165 -975q-18 -139 41 -217t182 -82q135 -4 225 73t115 221l167 980h246zM629 1724q0 90 66.5 153.5t159.5 63.5q82 0 143 -58.5t61 -142.5q0 -89 -66 -151.5 t-159 -62.5q-87 0 -146 58t-59 140zM736 1726q-6 -40 19 -73t68 -33q50 0 86.5 36t42.5 82q6 43 -18.5 75t-67.5 32q-50 0 -87 -36.5t-43 -82.5z" />
<glyph unicode="&#x16f;" horiz-adv-x="1114" d="M685 107q-123 -131 -308 -127q-105 2 -174.5 52t-99 139.5t-17.5 210.5l117 700h237l-118 -703q-4 -37 -1 -72q10 -124 125 -129q157 -6 254 126l136 778h237l-187 -1082h-222zM480 1414q0 90 66.5 153.5t159.5 63.5q82 0 143 -58.5t61 -142.5q0 -89 -66 -151.5 t-159 -62.5q-87 0 -146 58t-59 140zM587 1416q-6 -40 19 -73t68 -33q50 0 86.5 36t42.5 82q6 43 -18.5 75t-67.5 32q-50 0 -87 -36.5t-43 -82.5z" />
<glyph unicode="&#x170;" horiz-adv-x="1305" d="M1327 1456l-165 -973q-34 -233 -199.5 -371t-400.5 -134q-218 4 -344.5 132t-115.5 334l3 38l165 974h246l-165 -975q-18 -139 41 -217t182 -82q135 -4 225 73t115 221l167 980h246zM1109 1845h250l-311 -302h-210zM752 1845h243l-268 -302h-197z" />
<glyph unicode="&#x171;" horiz-adv-x="1114" d="M685 107q-123 -131 -308 -127q-105 2 -174.5 52t-99 139.5t-17.5 210.5l117 700h237l-118 -703q-4 -37 -1 -72q10 -124 125 -129q157 -6 254 126l136 778h237l-187 -1082h-222zM960 1535h250l-311 -302h-210zM603 1535h243l-268 -302h-197z" />
<glyph unicode="&#x172;" horiz-adv-x="1305" d="M1330 1456l-165 -973q-23 -164 -118 -287t-244 -179q-122 -80 -132 -168q-5 -57 51 -60q27 -1 88 22l12 -144q-69 -43 -154 -41q-87 0 -139.5 54.5t-50.5 138.5q2 88 63 160q-144 8 -249 74t-153 177.5t-31 251.5l165 974h246l-165 -975q-18 -139 41 -217t182 -82 q135 -4 225 73t115 221l167 980h246z" />
<glyph unicode="&#x173;" horiz-adv-x="1114" d="M860 0l5 -3l-47 -31q-131 -86 -138 -172q-5 -57 51 -60q27 -1 88 22l12 -144q-69 -43 -154 -41q-87 0 -139.5 54.5t-50.5 138.5q3 150 180 253l18 90q-123 -131 -308 -127q-105 2 -174.5 52t-99 139.5t-17.5 210.5l117 700h237l-118 -703q-4 -37 -1 -72q10 -124 125 -129 q157 -6 254 126l136 778h237l-187 -1082h-26z" />
<glyph unicode="&#x174;" horiz-adv-x="1758" d="M1211 362l388 1094h251l-554 -1456h-236l-101 1060l-440 -1060h-238l-98 1456h239l48 -1089l439 1089h207zM1374 1572v-17l-185 3l-117 155l-173 -154l-193 -4l-1 18l301 274h136z" />
<glyph unicode="&#x175;" horiz-adv-x="1486" d="M993 337l297 745h238l-474 -1082h-195l-95 740l-350 -740h-196l-99 1082h224l41 -734l342 734h179zM1185 1262v-17l-185 3l-117 155l-173 -154l-193 -4l-1 18l301 274h136z" />
<glyph unicode="&#x176;" horiz-adv-x="1221" d="M627 768l444 688h286l-642 -933l-91 -523h-248l96 549l-311 907h261zM1112 1572v-17l-185 3l-117 155l-173 -154l-193 -4l-1 18l301 274h136z" />
<glyph unicode="&#x177;" horiz-adv-x="977" d="M440 350l340 732h262l-641 -1269q-134 -256 -353 -253q-54 2 -123 20l20 188l43 -4q86 -3 142 32.5t94 110.5l57 112l-181 1063h246zM949 1262v-17l-185 3l-117 155l-173 -154l-193 -4l-1 18l301 274h136z" />
<glyph unicode="&#x178;" horiz-adv-x="1221" d="M627 768l444 688h286l-642 -933l-91 -523h-248l96 549l-311 907h261zM571 1795q54 0 89 -33.5t35 -82.5q0 -51 -35 -85.5t-88 -36.5q-56 0 -90 34t-34 82t34 84t89 38zM892 1672q0 53 35.5 86.5t86.5 35.5q56 0 90 -34t34 -82q0 -51 -35 -85.5t-88 -36.5 q-56 0 -89.5 33.5t-33.5 82.5z" />
<glyph unicode="&#x179;" horiz-adv-x="1206" d="M314 202h748l-36 -202h-1053l31 176l909 1076h-718l36 204h1024l-30 -172zM878 1846h285l-316 -303h-206z" />
<glyph unicode="&#x17a;" horiz-adv-x="1009" d="M312 194h550l-34 -194h-853l30 171l648 715h-515l35 196h823l-29 -165zM724 1536h285l-316 -303h-206z" />
<glyph unicode="&#x17b;" horiz-adv-x="1206" d="M314 202h748l-36 -202h-1053l31 176l909 1076h-718l36 204h1024l-30 -172zM664 1684q0 56 35.5 91.5t90.5 37.5t92 -32.5t37 -88.5q0 -57 -35.5 -91t-90.5 -36q-54 -2 -91.5 32.5t-37.5 86.5z" />
<glyph unicode="&#x17c;" horiz-adv-x="1009" d="M312 194h550l-34 -194h-853l30 171l648 715h-515l35 196h823l-29 -165zM510 1374q0 56 35.5 91.5t90.5 37.5t92 -32.5t37 -88.5q0 -57 -35.5 -91t-90.5 -36q-54 -2 -91.5 32.5t-37.5 86.5z" />
<glyph unicode="&#x17d;" horiz-adv-x="1206" d="M314 202h748l-36 -202h-1053l31 176l909 1076h-718l36 204h1024l-30 -172zM782 1693l169 153l209 4v-16l-308 -276h-146l-233 277v16l196 -4z" />
<glyph unicode="&#x17e;" horiz-adv-x="1009" d="M312 194h550l-34 -194h-853l30 171l648 715h-515l35 196h823l-29 -165zM628 1383l169 153l209 4v-16l-308 -276h-146l-233 277v16l196 -4z" />
<glyph unicode="&#x17f;" horiz-adv-x="518" d="M30 0l201 1183q23 177 132 278t279 99q60 -1 158 -24l-44 -184q-44 12 -89 14q-80 0 -132 -49.5t-67 -138.5l-202 -1178h-236z" />
<glyph unicode="&#x180;" horiz-adv-x="1215" d="M1117 536q-20 -165 -88.5 -298.5t-170 -197.5t-228.5 -61q-181 4 -273 139l-38 -118h-217l266 1536h238l-108 -559q121 129 287 125q157 -4 245.5 -115t93.5 -304q1 -60 -7 -147zM889 670q0 109 -45 170.5t-130 63.5q-143 4 -242 -138l-78 -448q44 -136 189 -141 q120 -3 197.5 92t99.5 268q8 85 9 133zM783 1216h-651l30 170h651z" />
<glyph unicode="&#x181;" horiz-adv-x="1510" d="M295 0l219 1255q-96 -6 -145.5 -64.5t-46.5 -151.5l1 -38h-187l-6 64q-11 178 96.5 285t307.5 107l461 -2q235 -1 354.5 -101.5t105.5 -283.5q-18 -210 -261 -318q89 -31 138.5 -116t42.5 -203q-14 -204 -161.5 -318.5t-383.5 -114.5h-535zM656 657l-80 -455l260 -1 q118 0 199.5 62t96.5 170q14 103 -31 161t-149 62zM687 843l238 -1q115 2 190.5 59.5t89.5 154.5q26 194 -204 195l-242 1z" />
<glyph unicode="&#x182;" horiz-adv-x="1259" d="M1150 1252h-651l-217 -1252h-246l252 1456h898zM438 899l254 -1q227 -1 353.5 -120.5t109.5 -315.5q-16 -208 -172.5 -335t-400.5 -127h-547l253 1456h247zM403 696l-86 -494l274 -2q129 2 216 74t102 191q14 105 -42 165.5t-163 64.5z" />
<glyph unicode="&#x183;" horiz-adv-x="1128" d="M996 1536l-30 -171h-476l-78 -388q123 129 287 125q158 -2 246.5 -115.5t93.5 -307.5q1 -64 -5 -125l-2 -16q-34 -262 -163.5 -413t-323.5 -146q-179 4 -273 139l-39 -118h-217l266 1536h714zM795 557l6 73q7 134 -37.5 202.5t-135.5 70.5q-144 4 -242 -137l-78 -448 q44 -137 189 -142q118 -5 195.5 88t100.5 272z" />
<glyph unicode="&#x184;" horiz-adv-x="1367" d="M644 1456l-97 -557l254 -1q228 -1 353.5 -120t110.5 -316q-16 -208 -172.5 -335t-400.5 -127h-547l170 978l-136 190l19 107l190 181h256zM513 696l-86 -494l274 -2q129 2 216 74t102 191q13 103 -41.5 164.5t-163.5 65.5z" />
<glyph unicode="&#x185;" horiz-adv-x="1252" d="M1154 536q-30 -250 -158 -406t-328 -151q-181 4 -274 138l-37 -117h-217l184 1058l-136 190l19 107l190 181h246l-107 -559q119 129 287 125q102 -1 178 -52.5t116.5 -149.5t43.5 -218q1 -59 -7 -146zM926 670q0 109 -45 170.5t-130 63.5q-142 4 -242 -139l-78 -447 q46 -136 189 -141q121 -3 198 92t99 268q8 85 9 133z" />
<glyph unicode="&#x186;" horiz-adv-x="1307" d="M294 481q5 -153 65.5 -224t180.5 -74q164 -5 274.5 118.5t147.5 360.5q22 142 28 228q10 187 -51.5 282.5t-187.5 99.5q-137 5 -228.5 -67.5t-130.5 -222.5l-245 -1q37 226 205.5 362.5t410.5 132.5q212 -4 336 -144t136 -379q6 -117 -27.5 -311t-127.5 -347t-230 -233 q-145 -86 -322 -82q-217 4 -343.5 137.5t-134.5 363.5h244z" />
<glyph unicode="&#x187;" horiz-adv-x="1431" d="M1194 475q-35 -227 -204 -363t-411 -132q-139 3 -243.5 66.5t-163 183.5t-65.5 272q-6 116 29 315q34 194 130 347.5t236.5 233.5t313.5 78q227 0 355 -128q112 195 324 193q60 0 134 -18l-21 -202q-32 9 -70 11q-190 9 -220 -178l-29 -179l-240 -1q-5 153 -65.5 224 t-180.5 74q-163 5 -273 -117t-148 -355l-20 -133l-9 -102q-8 -103 14.5 -193.5t79.5 -138t145 -50.5q279 -11 358 290z" />
<glyph unicode="&#x188;" horiz-adv-x="1196" d="M481 173q86 -2 151 49t85 135l224 1q-11 -107 -78 -195t-173 -137.5t-218 -46.5q-140 4 -236 73t-139 192.5t-27 275.5l1 11q29 263 182 419.5t376 152.5q170 -5 274 -98q92 175 275 175q54 -2 117 -17l-16 -163l-61 9q-76 2 -124.5 -37.5t-62.5 -114.5l-27 -163l-217 -1 q0 92 -45 151.5t-130 63.5q-143 6 -227.5 -127t-84.5 -373q0 -109 46.5 -171t134.5 -64z" />
<glyph unicode="&#x189;" horiz-adv-x="1382" d="M113 0l252 1456l394 -1q182 0 313.5 -90.5t190.5 -250t36 -351.5l-11 -79q-30 -201 -132.5 -356.5t-264.5 -241.5t-356 -86h-422zM577 1252l-182 -1050l146 -1q198 0 328.5 125.5t167.5 346.5q26 152 19 265q-9 145 -84.5 227t-209.5 86zM691 647h-651l30 170h651z" />
<glyph unicode="&#x18a;" horiz-adv-x="1554" d="M295 0l219 1255q-96 -6 -145.5 -64.5t-46.5 -151.5l1 -38h-187l-6 64q-11 178 96.5 285t307.5 107l412 -2q178 -1 307.5 -89.5t188 -245.5t36.5 -353l-7 -59q-38 -319 -245.5 -513.5t-517.5 -194.5h-413zM760 1252l-183 -1050l146 -1q204 0 335 131.5t165 365.5l10 68 q7 57 8 115q0 180 -76 273t-221 97z" />
<glyph unicode="&#x18b;" horiz-adv-x="1258" d="M503 1q-218 7 -339.5 127.5t-104.5 318.5q16 205 173 329t397 124l301 -1l62 353h-653l36 204h899l-253 -1456zM895 696l-276 2q-127 0 -213 -67.5t-101 -181.5q-14 -108 41 -175t162 -71l301 -1z" />
<glyph unicode="&#x18c;" horiz-adv-x="1131" d="M67 542q20 164 89.5 297.5t173 200t230.5 63.5q165 -4 258 -123l75 385h-477l30 171h714l-267 -1536h-212l16 112q-126 -137 -296 -133q-100 1 -175.5 53.5t-117.5 150t-46 216.5q-3 57 5 143zM303 522l-5 -72q-7 -125 38.5 -198t135.5 -75q137 -4 237 133l81 465 q-47 125 -182 129q-117 3 -197 -90t-108 -292z" />
<glyph unicode="&#x18d;" horiz-adv-x="1135" d="M20 -375l34 192l414 1q-25 45 -63 82.5t-84 85.5q-144 149 -203.5 286t-44.5 274l2 22q18 154 93.5 278t196 191.5t264.5 63.5q207 -4 320 -148.5t92 -365.5l-2 -22q-22 -195 -158 -333t-331 -158l-22 -1h-22q58 -83 127.5 -158.5t133.5 -154.5l-20 -135h-727zM804 689 l-4 33q-29 180 -186 185q-121 3 -202 -90t-101 -250l-3 -20q-23 -207 107 -324q34 -8 67 -10q122 -5 208 88t109 255q8 80 5 133z" />
<glyph unicode="&#x18e;" horiz-adv-x="1133" d="M203 1456h925l-252 -1456h-919l36 203h672l70 402h-581l35 200h580l78 448h-679z" />
<glyph unicode="&#x18f;" horiz-adv-x="1384" d="M585 -20q-211 4 -341.5 121.5t-156.5 329.5l-4 50q-5 84 7 174l22 143l943 -1q15 91 5 174q-18 135 -103 210.5t-224 78.5q-164 3 -373 -70l-30 201q134 84 421 84q190 -3 323.5 -91t193 -246.5t34.5 -354.5l-15 -104q-30 -205 -131.5 -367t-250.5 -249t-320 -83z M599 191q145 -3 254 98.5t176 310.5h-699l-7 -34q-14 -78 -4 -145q16 -108 88.5 -167.5t191.5 -62.5z" />
<glyph unicode="&#x190;" horiz-adv-x="1211" d="M777 642l-151 1q-146 0 -229.5 -63.5t-97.5 -180.5q-12 -100 51 -159t193 -61q118 -2 201.5 59.5t100.5 165.5h246q-11 -131 -86.5 -227.5t-201.5 -148t-272 -48.5q-153 2 -266 52t-168.5 143.5t-46.5 224.5q18 246 301 351q-83 48 -126 126t-37 175q8 133 83.5 230 t202 147t281.5 47q127 -3 229 -54t157.5 -143t53.5 -211l-244 1q4 92 -51.5 146t-157.5 58q-129 2 -213 -58t-98 -162q-27 -209 221 -210l161 -1z" />
<glyph unicode="&#x191;" horiz-adv-x="1182" d="M1042 617h-568l-114 -680q-24 -178 -130 -278.5t-269 -98.5q-55 0 -133 19l36 207q53 -16 92 -16q126 0 155 167l261 1519h899l-36 -204h-651l-76 -433h569z" />
<glyph unicode="&#x192;" horiz-adv-x="708" d="M673 902h-195l-148 -972q-19 -174 -119 -273t-262 -97q-67 2 -131 20l32 190q55 -14 91 -16q120 0 149 169l151 979h-161l29 180h160l12 101q21 178 129 278t278 98q53 -1 156 -23l-42 -187q-55 12 -94 12q-164 0 -191 -197l-11 -82h195z" />
<glyph unicode="&#x193;" horiz-adv-x="1434" d="M1169 189q-80 -104 -226 -157.5t-326 -51.5q-144 1 -254 64.5t-174.5 185t-73.5 276.5q-8 131 27.5 319t120 330t208.5 223q153 101 351 98q234 0 360 -122q111 189 318 187q61 0 135 -18l-21 -197q-37 10 -71 11q-190 4 -220 -184l-23 -143l-235 -1q-22 258 -250 265 q-168 5 -278.5 -119.5t-150.5 -360.5q-23 -137 -25 -224q-6 -179 65.5 -282t209.5 -105q174 -4 287 87l54 285h-292l34 192h535z" />
<glyph unicode="&#x194;" horiz-adv-x="1297" d="M444 1456l192 -861l494 861h290l-713 -1160q10 -47 46 -161.5t48.5 -180.5t8.5 -125q-10 -126 -98.5 -197.5t-225.5 -69.5q-133 2 -209 72t-67 180q8 115 127 292l138 198l-299 1152h268zM587 -171q4 24 3 50l-7 54l-24 99l-30 -51q-56 -95 -63 -162v-25q0 -45 43 -45 q62 0 78 80z" />
<glyph unicode="&#x195;" horiz-adv-x="1683" d="M1064 -20q-188 4 -276.5 122.5t-63.5 332.5l37 255q5 44 3 83q-10 126 -145 131q-131 3 -234 -130l-135 -774h-237l266 1536h238l-110 -573q135 142 306 138q154 -3 228.5 -103.5t59.5 -286.5l-2 -22l-36 -257l-4 -81q-2 -76 29 -123t94 -51q84 -5 139 60.5t73 194.5 l108 650h237l-109 -647q-32 -234 -150.5 -347t-315.5 -108z" />
<glyph unicode="&#x196;" horiz-adv-x="682" d="M335 350q-4 -34 -0.5 -64.5t16.5 -54.5t37.5 -38.5t62.5 -15.5q24 -1 47 2t46 7l6 -187q-35 -8 -69.5 -13t-70.5 -5q-82 1 -143.5 29.5t-101 78t-56 116.5t-8.5 147l201 1184h236z" />
<glyph unicode="&#x197;" horiz-adv-x="699" d="M360 0h-246l253 1456h246zM679 647h-651l30 170h651z" />
<glyph unicode="&#x198;" horiz-adv-x="1262" d="M564 623l-204 -196l-74 -427h-247l253 1456h247l-120 -684l161 179l271 296q34 40 69 81.5t75.5 75.5t87.5 55t105 20q60 -1 112 -22.5t101 -53.5l-103 -173q-22 13 -43 21.5t-47 7.5q-26 0 -47.5 -12t-41 -29.5t-36.5 -38t-32 -37.5l-307 -339l410 -803h-276z" />
<glyph unicode="&#x199;" horiz-adv-x="1047" d="M447 462l-134 -119l-59 -343h-237l209 1237q20 152 119 238.5t255 84.5q62 0 130 -17l-16 -163l-60 9q-162 4 -191 -168l-95 -557l83 86l344 332h303l-480 -462l316 -620h-257z" />
<glyph unicode="&#x19a;" horiz-adv-x="699" d="M357 0h-237l267 1536h237zM691 720h-651l30 170h651z" />
<glyph unicode="&#x19b;" horiz-adv-x="1106" d="M410 1529q96 -2 155 -46.5t75 -122.5l4 -25l196 69l-34 -192l-121 -42l188 -894q13 -52 35 -72.5t57 -17.5h17l-13 -194q-44 -9 -85 -8q-92 0 -149.5 49.5t-87.5 161.5l-105 516l-362 -711h-268l561 1040l-9 55l-202 -70l36 192l120 41q-15 48 -42 63t-72 12l-28 -1 l15 184q62 15 119 13z" />
<glyph unicode="&#x19c;" horiz-adv-x="1809" d="M1350 116q-124 -139 -310 -136q-111 2 -182 51t-94 134q-141 -192 -358 -188q-129 3 -202 79.5t-83 214.5q-6 81 3 164l172 1021h237l-173 -1024l-5 -79q-2 -80 29 -127t92 -49q86 -4 154 41t111 128l9 72l180 1038h236l-173 -1024l-5 -79q-2 -79 29 -126t92 -49 q89 -4 154 40.5t106 118.5l194 1119h238l-253 -1456h-217z" />
<glyph unicode="&#x19d;" horiz-adv-x="1502" d="M1241 0h-239l-454 1043l-188 -1106q-23 -175 -128 -277t-271 -100q-55 0 -133 19l36 207q53 -16 92 -16q126 0 156 172l260 1514h239l456 -1047l182 1047h245z" />
<glyph unicode="&#x19e;" horiz-adv-x="1135" d="M421 1083l-20 -133q138 156 319 152q161 -4 235.5 -110t55.5 -298l-187 -1109h-237l188 1108q5 44 2 83q-14 128 -148 131q-136 4 -237 -121l-137 -786h-238l188 1082z" />
<glyph unicode="&#x19f;" horiz-adv-x="1370" d="M592 -20q-143 3 -250 68.5t-168 189.5t-69 281q-7 115 21 276.5t97 296.5q96 187 249.5 287.5t342.5 96.5q216 -4 344.5 -149t140.5 -392q6 -124 -22.5 -284.5t-98 -295t-172.5 -224.5q-178 -156 -415 -151zM803 1267q-153 5 -262 -106t-171 -353l680 1q7 48 8 101 q3 167 -63 260t-192 97zM605 187q154 -5 260.5 104.5t168.5 348.5l-680 -1q-6 -48 -6 -99q0 -167 67 -258t190 -95z" />
<glyph unicode="&#x1a0;" horiz-adv-x="1385" d="M584 -20q-143 3 -249 67.5t-167.5 188t-69.5 284.5q-7 126 24.5 294t108 305t184.5 224q171 137 393 133q119 -2 217.5 -46t165.5 -124q82 15 132.5 79t69.5 197h181q-32 -338 -302 -409q21 -103 26 -204q5 -134 -25.5 -311.5t-112 -324t-198.5 -234.5 q-165 -123 -378 -119zM1041 768l9 106q10 181 -55.5 285t-199.5 108q-172 5 -286.5 -132t-149.5 -382l-9 -64l-8 -105q-6 -109 20.5 -203t86 -142.5t148.5 -51.5q165 -7 278 121t153 371z" />
<glyph unicode="&#x1a1;" horiz-adv-x="1157" d="M81 544q18 160 96.5 291t199 200.5t268.5 67.5q98 -2 185.5 -38.5t149.5 -113.5q103 41 130 165l14 76h161q-14 -144 -71.5 -228.5t-167.5 -123.5q15 -72 18 -143q2 -71 -6 -144q-37 -271 -192 -425t-376 -149q-212 6 -324 160.5t-88 383.5zM312 408q3 -105 52.5 -168.5 t138.5 -67.5q122 -3 206 94t108 266l7 98q3 125 -46.5 199.5t-147.5 78.5q-122 3 -205 -94.5t-108 -269.5q-8 -81 -5 -136z" />
<glyph unicode="&#x1a2;" horiz-adv-x="1748" d="M1419 -416h-238l278 1600l-150 -59l-155 -934q-80 -104 -221.5 -158.5t-322.5 -52.5q-219 2 -352.5 142t-147.5 384q-7 115 23 294.5t112.5 324.5t205.5 233q168 120 386 119q287 -5 427 -139l285 118h194zM1083 1186q-70 89 -249 89q-174 3 -293.5 -121.5t-160.5 -354.5 q-24 -136 -26 -232q-6 -180 66 -281t213 -103q176 -4 290 90z" />
<glyph unicode="&#x1a3;" horiz-adv-x="1402" d="M1097 -416h-238l208 1195l-117 -55l-90 -562q-72 -91 -172.5 -137.5t-216.5 -44.5q-139 2 -235.5 72t-139.5 192.5t-27 275.5l1 11q29 262 181 419t377 153q86 -2 165 -34.5t136 -98.5l241 112h187zM476 175q69 -2 145 43l117 641q-50 48 -122 50q-138 6 -222.5 -115.5 t-92.5 -345.5q-7 -128 37.5 -199.5t137.5 -73.5z" />
<glyph unicode="&#x1a4;" horiz-adv-x="1527" d="M636 541l-94 -541h-246l222 1255q-95 -7 -145 -62.5t-50 -154.5l1 -37h-187l-6 63q-12 178 96 285.5t308 107.5l520 -2q228 -1 356.5 -125.5t111.5 -328.5q-18 -215 -174.5 -338t-403.5 -123zM671 744l283 -2q130 0 218.5 68t103.5 190q14 111 -41.5 178.5t-167.5 72.5 l-307 1z" />
<glyph unicode="&#x1a5;" horiz-adv-x="1128" d="M1029 537q-20 -162 -86.5 -294t-169 -199.5t-229.5 -64.5q-169 4 -266 120l-97 -515h-238l255 1498q20 149 120 232.5t253 81.5q66 -2 130 -16l-16 -163q-40 8 -60 8q-157 4 -193 -157l-19 -86q122 124 285 120q102 -1 178 -52.5t116.5 -149.5t43.5 -218q1 -61 -7 -145z M795 558l5 73q3 129 -42.5 200t-136.5 73q-134 4 -232 -123l-84 -483q45 -121 183 -125q118 -3 198.5 92t108.5 293z" />
<glyph unicode="&#x1a6;" horiz-adv-x="1380" d="M290 1455l20 106l247 -1l-19 -104l216 -1q236 -1 361 -116t108 -315q-11 -143 -96 -247t-230 -159l334 -959l-1 -17l-262 2l-306 917h-278l-98 -561h-247l249 1455h2zM418 764l239 -2q128 0 215 68t102 183q15 114 -40 174t-167 64l-264 1z" />
<glyph unicode="&#x1a7;" horiz-adv-x="1209" d="M289 368q-12 -86 45 -136t170 -53q141 -4 236 63.5t116 196.5l246 2q-13 -140 -95.5 -244.5t-220 -161.5t-294.5 -55q-210 4 -336.5 107.5t-113.5 281.5q11 165 137.5 280t393.5 189l111 33q221 72 242 210q14 88 -44.5 140.5t-166.5 54.5q-127 2 -209.5 -63.5 t-99.5 -181.5l-244 -1q10 131 86.5 233t204 159t271.5 54q131 -2 238 -52.5t162.5 -139.5t47.5 -204q-10 -144 -118 -250t-344 -182l-153 -46q-134 -42 -196.5 -99t-71.5 -135z" />
<glyph unicode="&#x1a8;" horiz-adv-x="1035" d="M266 287q-8 -57 34 -91t127 -37q92 -2 158 44.5t89 136.5l229 2q-7 -108 -74 -191.5t-177 -129t-230 -42.5q-110 2 -201 41.5t-141 111.5t-45 167q4 118 90.5 199t281.5 128l124 27q172 37 186 138q9 59 -32.5 95.5t-111.5 36.5q-81 0 -139 -44t-72 -121l-238 -1 q8 105 70.5 184.5t165 121.5t221.5 39q159 -2 266 -91.5t102 -228.5q-7 -126 -108.5 -206.5t-311.5 -122.5l-70 -16q-179 -41 -193 -150z" />
<glyph unicode="&#x1a9;" horiz-adv-x="1144" d="M795 721l-465 -519h670l-35 -202h-1001l28 162l544 579l-344 574l25 141h966l-36 -204h-650l299 -511z" />
<glyph unicode="&#x1aa;" horiz-adv-x="992" d="M133 1189q10 156 127 269t273 109q144 -4 235.5 -113.5t77.5 -256.5l-207 -1241l-4 -60q0 -105 95 -110q12 -1 75 6l-19 -193q-65 -16 -119 -14q-142 4 -212 105.5t-52 266.5l158 894q-63 -22 -117 -20q-140 2 -229.5 108t-81.5 250zM466 1040q64 0 112.5 46t57.5 119 q7 68 -25.5 110t-90.5 42q-69 0 -116.5 -47t-56.5 -120q-7 -70 27 -110t92 -40z" />
<glyph unicode="&#x1ab;" horiz-adv-x="671" d="M655 902h-186l-102 -606q-3 -25 -1 -45q6 -64 79 -67q35 -2 85 8l-33 -268q-22 -150 -103 -229t-207 -77q-54 2 -117 17l16 163l60 -9q164 -4 197 166l5 27q-116 7 -173.5 87t-43.5 215l101 618h-173l32 180h172l46 263h238l-46 -263h185z" />
<glyph unicode="&#x1ac;" horiz-adv-x="1329" d="M1390 1252h-440l-217 -1252h-245l217 1252l-188 2q-98 -1 -154 -58.5t-53 -157.5l1 -37h-186q-12 65 -8 127q13 155 120 242t288 87l901 -1z" />
<glyph unicode="&#x1ad;" horiz-adv-x="702" d="M296 1248q20 151 119 237t256 84q56 0 129 -16l-15 -163l-61 9q-75 2 -124 -37.5t-63 -113.5l-27 -166h186l-32 -180h-185l-98 -587l-2 -47q0 -81 77 -84q36 -2 84 8l-18 -190q-72 -21 -148 -21q-121 2 -183 89.5t-48 232.5l99 599h-173l32 180h172z" />
<glyph unicode="&#x1ae;" horiz-adv-x="1216" d="M778 -422q-59 -15 -115 -14q-153 4 -232 106t-62 267l224 1315h-437l36 204h1122l-36 -204h-440l-226 -1316l-4 -52q-4 -108 77 -111q26 -2 98 10z" />
<glyph unicode="&#x1af;" horiz-adv-x="1411" d="M1330 1456l-40 -223q106 11 165.5 79.5t80.5 224.5l173 1q-19 -214 -125.5 -327t-311.5 -125l-108 -604q-34 -232 -197.5 -369t-403.5 -133q-149 3 -259 66t-161.5 177t-34.5 259l165 974h246l-165 -975q-18 -138 40.5 -217t183.5 -83q135 -4 224.5 73t114.5 222l167 980 h246z" />
<glyph unicode="&#x1b0;" horiz-adv-x="1238" d="M1377 1172q-15 -174 -97 -258.5t-247 -96.5l-147 -817h-222l21 107q-123 -131 -308 -127q-105 2 -174.5 52t-99 139.5t-17.5 210.5l117 700h237l-117 -703q-4 -37 -1 -72q7 -124 125 -129q158 -6 253 126l136 778h237l-31 -139q82 13 123 59t59 169z" />
<glyph unicode="&#x1b1;" horiz-adv-x="1331" d="M727 1248q-258 -71 -327 -509q-22 -141 -26 -227q-7 -153 48.5 -239.5t169.5 -90.5q147 -5 244 111t124.5 319.5t30.5 290.5q5 289 -157 344l32 209h491l-37 -204l-209 -2q162 -272 125 -545l-12 -87q-27 -195 -120.5 -342.5t-229 -224t-296.5 -72.5q-157 4 -269.5 87 t-162.5 226.5t-29 312.5l11 77q51 362 322 574l-210 -4l36 204h483z" />
<glyph unicode="&#x1b2;" horiz-adv-x="1310" d="M564 -20q-150 3 -260 66t-161 176.5t-34 259.5l165 974h245l-165 -975q-17 -137 41 -216.5t183 -83.5q137 -4 226.5 74.5t113.5 225.5l102 621q4 34 2 64q-6 97 -110 100q-31 0 -75 -7l19 200q60 15 118 14q146 -2 226 -103.5t64 -268.5l-100 -618 q-35 -234 -197.5 -370.5t-402.5 -132.5z" />
<glyph unicode="&#x1b3;" horiz-adv-x="1338" d="M627 766l217 340l78 132q146 245 335 240q114 -2 228 -75l-104 -173q-44 28 -89 30q-84 3 -163 -117l-84 -139l-330 -484l-91 -520h-248l96 550l-311 906h262z" />
<glyph unicode="&#x1b4;" horiz-adv-x="1193" d="M433 412l3 -72l317 676l58 127q107 223 300 221q105 -2 213 -82l-68 -148q-61 36 -103 37q-99 2 -169 -154l-33 -74l-539 -1108q-128 -280 -364 -276q-50 2 -123 21l20 188l42 -5q161 -4 239 151l53 105l-179 1063l241 1z" />
<glyph unicode="&#x1b5;" horiz-adv-x="1206" d="M837 824h266l-30 -171h-379l-380 -451h748l-36 -202h-1053l31 176l402 477h-274l31 171h388l362 428h-718l36 204h1024l-30 -172z" />
<glyph unicode="&#x1b6;" horiz-adv-x="1022" d="M718 634h155l-30 -171h-281l-244 -269h551l-34 -194h-853l29 171l265 292h-164l30 171h288l230 252h-515l34 196h823l-28 -166z" />
<glyph unicode="&#x1b7;" horiz-adv-x="1300" d="M695 772q149 -10 251 -85t147 -205.5t28 -295.5q-19 -185 -106.5 -325t-230.5 -213t-322 -69q-223 4 -350.5 136t-135.5 355h244q7 -155 70 -222t186 -70q190 -4 295 127.5t111 362.5l-1 68q-9 121 -76.5 183.5t-187.5 62.5l-245 1l30 174l510 495h-706l36 204h1017 l-29 -168z" />
<glyph unicode="&#x1b8;" horiz-adv-x="1300" d="M1121 71q-23 -148 -106.5 -261t-215.5 -174t-286 -58q-169 3 -285.5 75.5t-167.5 207.5t-32 311q28 272 193.5 429t438.5 177l-351 532l26 146h1016l-36 -204h-723l355 -517l-28 -152l-223 1q-147 1 -246 -67t-144.5 -205t-34.5 -288l3 -27q30 -214 251 -219 q142 -4 229 67.5t126 222.5z" />
<glyph unicode="&#x1b9;" horiz-adv-x="1139" d="M1090 1082l-35 -196h-604l278 -412l-29 -160l-126 1q-153 0 -243.5 -76t-105.5 -215q-12 -100 48 -162t166 -64q103 -2 180 63t93 167l236 1q-17 -193 -162.5 -311t-359.5 -114q-135 3 -239.5 56t-158 147.5t-43.5 218.5q15 193 139 310.5t340 146.5l-283 455l26 144h883 z" />
<glyph unicode="&#x1ba;" horiz-adv-x="1063" d="M179 -129q-8 -56 34 -90.5t125 -37.5q93 -2 159 44.5t88 137.5l230 2q-7 -108 -73.5 -191.5t-178 -129.5t-229.5 -43q-78 1 -153.5 24.5t-128.5 65.5q-112 89 -105 230q6 183 217 275q79 35 287 77q164 34 181 139q16 103 -140 109l-212 1l27 156l346 245l-484 2l35 195 h848l-27 -153l-368 -288q101 -35 154.5 -109.5t49.5 -165.5q-9 -196 -243 -283q-66 -25 -251 -66q-173 -39 -188 -146z" />
<glyph unicode="&#x1bb;" horiz-adv-x="1166" d="M952 0h-951l31 178l499 469h-255l30 170l395 -1q68 77 98.5 133t37.5 109q13 98 -31 159.5t-132 65.5q-114 4 -189 -70t-93 -200l-236 -2q11 134 83.5 242t192.5 167.5t258 56.5q123 -3 216.5 -52.5t138.5 -138t34 -203.5q-14 -130 -120 -269l158 3l-30 -170h-260 l-61 -59l-428 -392l648 -2z" />
<glyph unicode="&#x1bc;" horiz-adv-x="1173" d="M225 726l144 520h-197l37 210h981l-37 -210h-561l-108 -350q98 59 220 59q186 -2 282 -136t78 -346q-13 -143 -84.5 -258t-189 -177.5t-258.5 -58.5q-182 4 -294 118t-116 297h229q5 -105 55 -161.5t140 -58.5q112 -3 189.5 83.5t91.5 223.5q14 124 -37 200t-155 78 q-65 2 -116 -20.5t-100 -62.5z" />
<glyph unicode="&#x1bd;" horiz-adv-x="1050" d="M136 480l117 402h-159l35 200h874l-36 -200h-489l-75 -214q94 55 206 55q158 2 249 -95.5t81 -264.5q-13 -179 -143.5 -282t-336.5 -99q-177 5 -286.5 96t-107.5 235l231 16q0 -70 46 -109t128 -41q95 -2 158.5 50.5t74.5 141.5q9 81 -32.5 129t-122.5 49 q-115 3 -193 -81z" />
<glyph unicode="&#x1be;" horiz-adv-x="1035" d="M831 902h-184l-17 -104q-9 -66 21 -122t104 -117.5t106 -118t30 -125.5q-5 -102 -65 -178t-167 -118t-229 -40q-179 4 -293 104t-112 259h230q0 -88 49.5 -132.5t135.5 -45.5q91 0 150 37.5t69 100.5q8 47 -18.5 94t-104.5 124t-111.5 142.5t-27.5 135.5l13 104h-174 l31 180h173l46 263h237l-46 -263h186z" />
<glyph unicode="&#x1bf;" horiz-adv-x="1128" d="M419 1083l-18 -112q126 135 297 131q156 -4 245 -115t94 -309q1 -60 -7 -147q-31 -256 -223.5 -426.5t-576.5 -268.5l-49 -252h-238l260 1498zM620 904q-133 4 -231 -123l-139 -758q242 70 376 196t163 301l5 33l6 73q3 136 -43.5 206t-136.5 72z" />
<glyph unicode="&#x1c0;" horiz-adv-x="496" d="M221 0h-164l253 1456h164z" />
<glyph unicode="&#x1c1;" horiz-adv-x="758" d="M221 0h-164l253 1456h164zM483 0h-164l253 1456h164z" />
<glyph unicode="&#x1c2;" horiz-adv-x="699" d="M327 0h-164l253 1456h164zM724 910h-651l30 170h651zM641 431h-651l30 170h651z" />
<glyph unicode="&#x1c3;" horiz-adv-x="543" d="M342 429h-204l156 1027h250zM55 111q0 59 37.5 97t95.5 40q57 2 96 -35t39 -94t-37.5 -94.5t-95.5 -39.5q-55 -2 -95 33.5t-40 92.5z" />
<glyph unicode="&#x1c4;" horiz-adv-x="2349" d="M39 0l252 1456l394 -1q182 0 313.5 -90.5t190.5 -250t36 -351.5l-11 -79q-30 -201 -132.5 -356.5t-264.5 -241.5t-356 -86h-422zM503 1252l-182 -1050l146 -1q198 0 328.5 125.5t167.5 346.5q26 152 19 265q-9 145 -84.5 227t-209.5 86zM1456 202h748l-36 -202h-1053 l31 176l909 1076h-718l36 204h1024l-30 -172zM1925 1702l169 153l209 4v-16l-308 -276h-146l-233 277v16l196 -4z" />
<glyph unicode="&#x1c5;" horiz-adv-x="2203" d="M39 0l252 1456l403 -1q145 -2 261.5 -64.5t187.5 -180.5t85 -270q13 -139 -25.5 -320t-141 -321.5t-254 -218.5t-330.5 -80h-438zM503 1252l-182 -1050l146 -1q204 0 335 131.5t165 365.5l10 68q7 57 8 115q3 172 -72.5 269t-224.5 101zM1505 194h551l-34 -194h-854 l30 171l649 715h-515l35 196h822l-29 -165zM1825 1380l159 140l209 3v-21l-293 -250h-153l-227 248v23l195 -2z" />
<glyph unicode="&#x1c6;" horiz-adv-x="2019" d="M65 541q20 165 91.5 300t175 200t228.5 62q165 -4 258 -123l109 580h237l-271 -1560h-202l11 117q-127 -142 -301 -138q-99 1 -175 53.5t-118.5 149.5t-48.5 217q-3 62 3 121zM1320 194h552l-34 -194h-854l29 171l650 715h-515l34 196h822l-28 -165zM304 522l-5 -72 q-7 -130 38 -200.5t135 -72.5q137 -4 237 133l81 465q-47 125 -182 129q-120 3 -200 -94t-102 -267zM1641 1380l159 140l209 3v-21l-293 -250h-153l-228 248l1 23l195 -2z" />
<glyph unicode="&#x1c7;" horiz-adv-x="2198" d="M321 202h642l-36 -202h-888l253 1456h247zM1960 1456h246l-174 -1021q-31 -212 -173.5 -336t-351.5 -120q-204 4 -311.5 121t-97.5 316l246 -1q-14 -229 178 -233q100 -4 171.5 63t92.5 189z" />
<glyph unicode="&#x1c8;" horiz-adv-x="1593" d="M321 202h642l-36 -202h-888l253 1456h247zM1536 1082l-199 -1177q-22 -168 -116 -257.5t-245 -87.5q-64 2 -135 19l20 192q46 -11 84 -11q127 0 153 149l201 1173h237zM1328 1359q0 58 36 95.5t96 39.5q58 2 96.5 -34.5t38.5 -92.5q0 -57 -37.5 -94t-95.5 -39 q-60 0 -97 35.5t-37 89.5z" />
<glyph unicode="&#x1c9;" horiz-adv-x="1025" d="M268 0h-237l267 1536h237zM968 1082l-199 -1177q-22 -168 -116 -257.5t-245 -87.5q-64 2 -135 19l20 192q46 -11 84 -11q127 0 153 149l201 1173h237zM760 1359q0 58 36 95.5t96 39.5q58 2 96.5 -34.5t38.5 -92.5q0 -57 -37.5 -94t-95.5 -39q-60 0 -97 35.5t-37 89.5z " />
<glyph unicode="&#x1ca;" horiz-adv-x="2533" d="M1161 0h-239l-455 1043l-181 -1043h-247l253 1456h239l455 -1047l182 1047h246zM2295 1456h246l-174 -1021q-31 -212 -173.5 -336t-351.5 -120q-204 4 -311.5 121t-97.5 316l246 -1q-14 -229 178 -233q100 -4 171.5 63t92.5 189z" />
<glyph unicode="&#x1cb;" horiz-adv-x="1928" d="M1161 0h-239l-455 1043l-181 -1043h-247l253 1456h239l455 -1047l182 1047h246zM1871 1082l-199 -1177q-22 -168 -116 -257.5t-245 -87.5q-64 2 -135 19l20 192q46 -11 84 -11q127 0 153 149l201 1173h237zM1663 1359q0 58 36 95.5t96 39.5q58 2 96.5 -34.5t38.5 -92.5 q0 -57 -37.5 -94t-95.5 -39q-60 0 -97 35.5t-37 89.5z" />
<glyph unicode="&#x1cc;" horiz-adv-x="1623" d="M423 1083l-24 -127q139 150 321 146q152 -3 225 -108.5t54 -294.5l-117 -699h-237l118 702q5 43 1 80q-13 119 -142 122q-135 2 -237 -133l-135 -771h-237l187 1082zM1566 1082l-199 -1177q-22 -168 -116 -257.5t-245 -87.5q-64 2 -135 19l20 192q46 -11 84 -11 q127 0 153 149l201 1173h237zM1358 1359q0 58 36 95.5t96 39.5q58 2 96.5 -34.5t38.5 -92.5q0 -57 -37.5 -94t-95.5 -39q-60 0 -97 35.5t-37 89.5z" />
<glyph unicode="&#x1cd;" horiz-adv-x="1332" d="M893 339h-545l-174 -339h-266l786 1456h222l282 -1456h-248zM452 543h408l-99 602zM843 1693l169 153l209 4v-16l-308 -276h-146l-233 277v16l196 -4z" />
<glyph unicode="&#x1ce;" horiz-adv-x="1085" d="M659 0q-12 40 -10 101q-134 -125 -289 -121q-141 2 -233.5 90.5t-86.5 224.5q8 171 148 269t376 98l154 -2l14 74q6 39 0 73q-20 108 -143 111q-76 2 -133.5 -38.5t-70.5 -108.5l-237 -2q7 100 71 175.5t170 117.5t224 40q177 -4 276 -106.5t82 -265.5l-83 -507l-8 -90 q-3 -59 15 -115l-1 -18h-235zM415 174q75 -2 139 34.5t109 94.5l37 205l-113 1q-134 0 -214 -50.5t-91 -138.5q-8 -67 29.5 -105.5t103.5 -40.5zM675 1383l169 153l209 4v-16l-308 -276h-146l-233 277v16l196 -4z" />
<glyph unicode="&#x1cf;" horiz-adv-x="571" d="M299 0h-246l253 1456h246zM460 1700l169 153l209 4v-16l-308 -276h-146l-233 277v16l196 -4z" />
<glyph unicode="&#x1d0;" horiz-adv-x="532" d="M271 0h-237l188 1082h237zM385 1376l169 153l209 4v-16l-308 -276h-146l-233 277v16l196 -4z" />
<glyph unicode="&#x1d1;" horiz-adv-x="1382" d="M599 -20q-142 3 -249.5 68t-167.5 188.5t-68 280.5q-7 125 22.5 292t105 304.5t180.5 224.5q173 142 400 138q216 -4 344.5 -149t140.5 -392q6 -124 -22.5 -284.5t-98 -295t-172.5 -224.5q-178 -156 -415 -151zM1054 767l9 106q6 109 -19 201.5t-84.5 141t-150.5 51.5 q-126 4 -223.5 -71t-158 -228t-70.5 -384q-10 -183 56 -288t198 -109q173 -5 285.5 130t147.5 380zM866 1693l169 153l209 4v-16l-308 -276h-146l-233 277v16l196 -4z" />
<glyph unicode="&#x1d2;" horiz-adv-x="1141" d="M73 545q17 159 93.5 289t196.5 201t266 67q139 -2 240 -74t147.5 -197t32.5 -278q-16 -172 -93.5 -304t-198 -202.5t-267.5 -66.5q-138 2 -238.5 73.5t-147.5 196t-34 274.5zM306 408q5 -105 55.5 -168.5t140.5 -66.5q122 -3 204.5 94t103.5 265l6 98q0 128 -51 201 t-148 77q-152 4 -240 -149q-53 -93 -67 -214q-8 -84 -4 -137zM672 1383l169 153l209 4v-16l-308 -276h-146l-233 277v16l196 -4z" />
<glyph unicode="&#x1d3;" horiz-adv-x="1305" d="M1327 1456l-165 -973q-34 -233 -199.5 -371t-400.5 -134q-218 4 -344.5 132t-115.5 334l3 38l165 974h246l-165 -975q-18 -139 41 -217t182 -82q135 -4 225 73t115 221l167 980h246zM826 1693l169 153l209 4v-16l-308 -276h-146l-233 277v16l196 -4z" />
<glyph unicode="&#x1d4;" horiz-adv-x="1114" d="M685 107q-123 -131 -308 -127q-105 2 -174.5 52t-99 139.5t-17.5 210.5l117 700h237l-118 -703q-4 -37 -1 -72q10 -124 125 -129q157 -6 254 126l136 778h237l-187 -1082h-222zM677 1383l169 153l209 4v-16l-308 -276h-146l-233 277v16l196 -4z" />
<glyph unicode="&#x1d5;" horiz-adv-x="1305" d="M1327 1456l-165 -973q-34 -233 -199.5 -371t-400.5 -134q-218 4 -344.5 132t-115.5 334l3 38l165 974h246l-165 -975q-18 -139 41 -217t182 -82q135 -4 225 73t115 221l167 980h246zM1202 1876h-667l28 158h667zM493 1676q0 48 33.5 81.5t86.5 35.5q51 2 87 -30t36 -82 q0 -52 -36.5 -84.5t-84.5 -32.5q-50 -2 -86 30t-36 82zM1052 1792q51 2 87 -30t36 -82q0 -52 -36.5 -84.5t-84.5 -32.5q-53 -2 -87.5 31t-34.5 81t33.5 81.5t86.5 35.5z" />
<glyph unicode="&#x1d6;" horiz-adv-x="1114" d="M685 107q-123 -131 -308 -127q-105 2 -174.5 52t-99 139.5t-17.5 210.5l117 700h237l-118 -703q-4 -37 -1 -72q10 -124 125 -129q157 -6 254 126l136 778h237l-187 -1082h-222zM341 1363q0 26 9.5 48t26 38t38.5 25.5t48 10.5q25 1 48 -7.5t39.5 -23.5t26.5 -37t10 -48 t-9.5 -48t-26.5 -38.5t-39.5 -25.5t-47.5 -10q-26 -1 -48.5 7.5t-39 24t-26 37t-9.5 47.5zM784 1362q0 26 9.5 48t26 38t38.5 25.5t48 10.5q25 1 48 -7.5t39.5 -23.5t26.5 -37t10 -48t-9.5 -48t-26.5 -38.5t-39.5 -25.5t-47.5 -10q-26 -1 -48.5 7.5t-39 24t-26 37t-9.5 47.5 zM1061 1595h-668l28 158h668z" />
<glyph unicode="&#x1d7;" horiz-adv-x="1305" d="M1327 1456l-165 -973q-34 -233 -199.5 -371t-400.5 -134q-218 4 -344.5 132t-115.5 334l3 38l165 974h246l-165 -975q-18 -139 41 -217t182 -82q135 -4 225 73t115 221l167 980h246zM922 1974l208 -1l-215 -210h-155zM613 1793q51 2 87 -30t36 -82q-1 -52 -35.5 -83.5 t-85.5 -33.5q-50 -2 -86 30t-36 81t33 82.5t87 35.5zM932 1674q1 52 35 84t85 34t87 -30t36 -82q0 -49 -34 -82t-87 -35q-52 -2 -87 30t-35 81z" />
<glyph unicode="&#x1d8;" horiz-adv-x="1114" d="M685 107q-123 -131 -308 -127q-105 2 -174.5 52t-99 139.5t-17.5 210.5l117 700h237l-118 -703q-4 -37 -1 -72q10 -124 125 -129q157 -6 254 126l136 778h237l-187 -1082h-222zM463 1485q50 2 87 -31t37 -85q0 -51 -35 -85.5t-88 -36.5q-52 -2 -87.5 31.5t-35.5 84.5 t35 85.5t87 36.5zM906 1484q50 2 87 -31t37 -85q0 -51 -35 -85.5t-88 -36.5q-52 -2 -87.5 31.5t-35.5 84.5t35 85.5t87 36.5zM827 1836h287l-321 -302h-207z" />
<glyph unicode="&#x1d9;" horiz-adv-x="1305" d="M1327 1456l-165 -973q-34 -233 -199.5 -371t-400.5 -134q-218 4 -344.5 132t-115.5 334l3 38l165 974h246l-165 -975q-18 -139 41 -217t182 -82q135 -4 225 73t115 221l167 980h246zM613 1793q51 2 87 -30t36 -82q-1 -52 -35.5 -83.5t-85.5 -33.5q-50 -2 -86 30t-36 81 t33 82.5t87 35.5zM932 1674q1 52 35 84t85 34t87 -30t36 -82q0 -49 -34 -82t-87 -35q-52 -2 -87 30t-35 81zM863 1914l156 118l210 3v-21l-289 -222h-153l-232 220l1 23l193 -2z" />
<glyph unicode="&#x1da;" horiz-adv-x="1114" d="M685 107q-123 -131 -308 -127q-105 2 -174.5 52t-99 139.5t-17.5 210.5l117 700h237l-118 -703q-4 -37 -1 -72q10 -124 125 -129q157 -6 254 126l136 778h237l-187 -1082h-222zM463 1485q50 2 87 -31t37 -85q0 -51 -35 -85.5t-88 -36.5q-52 -2 -87.5 31.5t-35.5 84.5 t35 85.5t87 36.5zM906 1484q50 2 87 -31t37 -85q0 -51 -35 -85.5t-88 -36.5q-52 -2 -87.5 31.5t-35.5 84.5t35 85.5t87 36.5zM728 1684l170 153l208 4l1 -17l-308 -275h-147l-232 276l-1 17l196 -4z" />
<glyph unicode="&#x1db;" horiz-adv-x="1305" d="M1327 1456l-165 -973q-34 -233 -199.5 -371t-400.5 -134q-218 4 -344.5 132t-115.5 334l3 38l165 974h246l-165 -975q-18 -139 41 -217t182 -82q135 -4 225 73t115 221l167 980h246zM922 1762h-122l-140 212h174zM493 1676q0 48 33 81.5t87 35.5q51 2 87 -30t36 -82 q-1 -52 -35.5 -83.5t-85.5 -33.5q-50 -2 -86 30t-36 82zM932 1674q1 52 35 84t85 34t87 -30t36 -82q0 -49 -34 -82t-87 -35q-52 -2 -87 30t-35 81z" />
<glyph unicode="&#x1dc;" horiz-adv-x="1114" d="M685 107q-123 -131 -308 -127q-105 2 -174.5 52t-99 139.5t-17.5 210.5l117 700h237l-118 -703q-4 -37 -1 -72q10 -124 125 -129q157 -6 254 126l136 778h237l-187 -1082h-222zM463 1485q50 2 87 -31t37 -85q0 -51 -35 -85.5t-88 -36.5q-52 -2 -87.5 31.5t-35.5 84.5 t35 85.5t87 36.5zM906 1484q50 2 87 -31t37 -85q0 -51 -35 -85.5t-88 -36.5q-52 -2 -87.5 31.5t-35.5 84.5t35 85.5t87 36.5zM830 1534h-180l-211 302h253z" />
<glyph unicode="&#x1dd;" horiz-adv-x="1061" d="M581 1102q206 -4 319.5 -153.5t91.5 -379.5l-7 -57q-21 -151 -98 -277t-191 -191.5t-245 -62.5q-197 6 -297 140t-74 347l22 143h656q12 131 -41 211.5t-158 83.5q-151 5 -307 -90l-65 160q67 62 169 95t225 31zM465 173q168 -6 271 261h-424q-13 -73 -7 -114 q8 -67 50.5 -106.5t109.5 -40.5z" />
<glyph unicode="&#x1de;" horiz-adv-x="1332" d="M893 339h-545l-174 -339h-266l786 1456h222l282 -1456h-248zM452 543h408l-99 602zM1219 1876h-667l28 158h667zM510 1676q0 48 33.5 81.5t86.5 35.5q51 2 87 -30t36 -82q0 -52 -36.5 -84.5t-84.5 -32.5q-50 -2 -86 30t-36 82zM1069 1792q51 2 87 -30t36 -82 q0 -52 -36.5 -84.5t-84.5 -32.5q-53 -2 -87.5 31t-34.5 81t33.5 81.5t86.5 35.5z" />
<glyph unicode="&#x1df;" horiz-adv-x="1085" d="M659 0q-12 40 -10 101q-134 -125 -289 -121q-141 2 -233.5 90.5t-86.5 224.5q8 171 148 269t376 98l154 -2l14 74q6 39 0 73q-20 108 -143 111q-76 2 -133.5 -38.5t-70.5 -108.5l-237 -2q7 100 71 175.5t170 117.5t224 40q177 -4 276 -106.5t82 -265.5l-83 -507l-8 -90 q-3 -59 15 -115l-1 -18h-235zM415 174q75 -2 139 34.5t109 94.5l37 205l-113 1q-134 0 -214 -50.5t-91 -138.5q-8 -67 29.5 -105.5t103.5 -40.5zM339 1363q0 26 9.5 48t26 38t38.5 25.5t48 10.5q25 1 48 -7.5t39.5 -23.5t26.5 -37t10 -48t-9.5 -48t-26.5 -38.5t-39.5 -25.5 t-47.5 -10q-26 -1 -48.5 7.5t-39 24t-26 37t-9.5 47.5zM782 1362q0 26 9.5 48t26 38t38.5 25.5t48 10.5q25 1 48 -7.5t39.5 -23.5t26.5 -37t10 -48t-9.5 -48t-26.5 -38.5t-39.5 -25.5t-47.5 -10q-26 -1 -48.5 7.5t-39 24t-26 37t-9.5 47.5zM1059 1595h-668l28 158h668z" />
<glyph unicode="&#x1e0;" horiz-adv-x="1332" d="M893 339h-545l-174 -339h-266l786 1456h222l282 -1456h-248zM452 543h408l-99 602zM729 1678q0 47 34 81t87 36q55 0 88.5 -33t33.5 -79q0 -50 -35 -83.5t-85 -33.5q-54 -2 -88.5 31t-34.5 81zM1218 1876h-667l28 158h667z" />
<glyph unicode="&#x1e1;" horiz-adv-x="1085" d="M659 0q-12 40 -10 101q-134 -125 -289 -121q-141 2 -233.5 90.5t-86.5 224.5q8 171 148 269t376 98l154 -2l14 74q6 39 0 73q-20 108 -143 111q-76 2 -133.5 -38.5t-70.5 -108.5l-237 -2q7 100 71 175.5t170 117.5t224 40q177 -4 276 -106.5t82 -265.5l-83 -507l-8 -90 q-3 -59 15 -115l-1 -18h-235zM415 174q75 -2 139 34.5t109 94.5l37 205l-113 1q-134 0 -214 -50.5t-91 -138.5q-8 -67 29.5 -105.5t103.5 -40.5zM558 1375q0 27 9 50.5t25.5 40.5t40 26.5t50.5 10.5q27 0 50.5 -8.5t41 -24.5t27.5 -38.5t10 -49.5t-9.5 -50.5t-26.5 -40.5 t-40 -26.5t-50 -10.5q-27 0 -50.5 8.5t-40.5 24.5t-27 38.5t-10 49.5zM1063 1615h-668l28 158h668z" />
<glyph unicode="&#x1e2;" horiz-adv-x="1877" d="M1719 0h-871l44 340h-479l-238 -340h-296l1062 1456h971l-35 -197h-626l-55 -408h533l-35 -197h-524l-60 -458h644zM562 555h358l85 634zM1420 1618h-669l26 158h668z" />
<glyph unicode="&#x1e3;" horiz-adv-x="1687" d="M1130 -19q-115 0 -209 41.5t-147 117.5q-172 -164 -425 -160q-154 2 -244 89.5t-82 234.5q10 161 140.5 250t360.5 89l191 -2l13 74q6 38 2 72q-17 117 -136 120q-87 2 -146.5 -40t-72.5 -115l-237 19q7 98 68.5 174.5t171 118t232.5 39.5q215 -5 305 -133 q155 136 340 132q194 -6 293.5 -141t73.5 -349l-21 -141h-669q-14 -136 45.5 -214.5t174.5 -80.5q85 -2 160.5 24.5t149.5 65.5l58 -168q-65 -57 -170.5 -88t-219.5 -29zM402 163q114 0 252 102l40 210l-169 1q-107 -3 -179.5 -50t-84.5 -126q-9 -63 30 -99t111 -38z M1239 908q-96 3 -169 -64.5t-119 -202.5h438l6 33q7 45 3 87q-14 141 -159 147zM1293 1297h-669l26 158h668z" />
<glyph unicode="&#x1e4;" horiz-adv-x="1386" d="M1209 483h148l-27 -158l-149 -1l-16 -135q-78 -102 -219 -155.5t-319 -53.5h-11q-144 1 -255 65.5t-174.5 185.5t-72.5 275q-7 120 25 306t114.5 330.5t200.5 226.5q160 111 366 107q219 -4 342.5 -126t139.5 -342l-239 1q-22 257 -249 264q-170 5 -279.5 -119.5 t-149.5 -359.5q-23 -137 -25 -224q-6 -179 65.5 -282t209.5 -105q170 -4 290 86l16 58l-263 -2l29 158l252 -2l20 76l-295 -2l34 192h537z" />
<glyph unicode="&#x1e5;" horiz-adv-x="1136" d="M1099 1082l-196 -1133h99l-22 -128h-101q-67 -164 -201.5 -251t-313.5 -83q-111 3 -210.5 45t-171.5 127l118 140q99 -119 255 -121q171 -4 274 145l-730 -2l23 128l744 -1l36 151q-123 -123 -284 -119q-154 4 -245 117.5t-100 304.5q-3 63 3 123l2 16q36 263 170.5 415 t329.5 147q178 -4 269 -131l35 111zM313 520l-5 -72q-3 -130 43.5 -199.5t136.5 -71.5q138 -4 238 128l84 475q-52 119 -186 123q-124 3 -206 -96t-103 -265z" />
<glyph unicode="&#x1e6;" horiz-adv-x="1362" d="M1168 189q-80 -104 -226 -157.5t-326 -51.5q-144 1 -254 64.5t-174.5 185t-73.5 276.5q-7 120 25 306t114.5 330.5t200.5 226.5q160 111 366 107q219 -4 342.5 -126t139.5 -342l-239 1q-22 257 -249 264q-170 5 -279.5 -119.5t-149.5 -359.5q-23 -137 -25 -224 q-6 -179 65.5 -282t208.5 -105q175 -4 288 87l54 285h-292l34 192h535zM842 1714l169 153l209 4v-16l-308 -276h-146l-233 277v16l196 -4z" />
<glyph unicode="&#x1e7;" horiz-adv-x="1136" d="M70 542q19 162 87.5 293t172.5 200.5t238 67.5q178 -4 269 -131l37 111l216 -1l-179 -1052q-30 -212 -178.5 -337.5t-361.5 -119.5q-114 2 -216 52t-164 132l126 143q95 -131 248 -135q116 -4 199.5 63.5t111.5 192.5l17 76q-125 -121 -284 -117q-152 2 -243.5 115 t-100.5 304q-3 60 5 143zM305 521q-6 -51 -4 -110q2 -106 48 -168t131 -65q135 -5 236 125l85 478q-52 119 -185 123q-120 3 -202 -93t-107 -269zM663 1383l169 153l209 4v-16l-308 -276h-146l-233 277v16l196 -4z" />
<glyph unicode="&#x1e8;" horiz-adv-x="1262" d="M563 627l-200 -183l-77 -444h-247l253 1456h247l-117 -669l153 159l502 510h316l-648 -657l409 -799h-276zM762 1693l169 153l209 4v-16l-308 -276h-146l-233 277v16l196 -4z" />
<glyph unicode="&#x1e9;" horiz-adv-x="1047" d="M447 462l-134 -119l-59 -343h-237l266 1536h237l-152 -872l83 86l344 332h303l-480 -462l316 -620h-257zM760 1700l169 153l209 4v-16l-308 -276h-146l-233 277v16l196 -4z" />
<glyph unicode="&#x1ea;" horiz-adv-x="1382" d="M599 -20q-142 3 -249.5 68t-167.5 188.5t-68 280.5q-7 125 22.5 292t105 304.5t180.5 224.5q173 142 400 138q216 -4 344.5 -149t140.5 -392q6 -124 -22.5 -284.5t-98 -295t-172.5 -224.5q-178 -156 -415 -151zM1054 767l9 106q6 109 -19 201.5t-84.5 141t-150.5 51.5 q-126 4 -223.5 -71t-158 -228t-70.5 -384q-10 -183 56 -288t198 -109q173 -5 285.5 130t147.5 380zM672 -3l-47 -31q-131 -86 -138 -172q-5 -57 51 -60q27 -1 88 22l12 -144q-69 -43 -154 -41q-87 0 -139.5 54.5t-50.5 138.5q3 179 267 297z" />
<glyph unicode="&#x1eb;" horiz-adv-x="1141" d="M73 545q17 159 93.5 289t196.5 201t266 67q139 -2 240 -74t147.5 -197t32.5 -278q-16 -172 -93.5 -304t-198 -202.5t-267.5 -66.5q-138 2 -238.5 73.5t-147.5 196t-34 274.5zM306 408q5 -105 55.5 -168.5t140.5 -66.5q122 -3 204.5 94t103.5 265l6 98q0 128 -51 201 t-148 77q-152 4 -240 -149q-53 -93 -67 -214q-8 -84 -4 -137zM558 -5l-47 -31q-131 -86 -138 -172q-5 -57 51 -60q27 -1 88 22l12 -144q-69 -43 -154 -41q-87 0 -139.5 54.5t-50.5 138.5q3 179 267 297z" />
<glyph unicode="&#x1ec;" horiz-adv-x="1382" d="M599 -20q-142 3 -249.5 68t-167.5 188.5t-68 280.5q-7 125 22.5 292t105 304.5t180.5 224.5q173 142 400 138q216 -4 344.5 -149t140.5 -392q6 -124 -22.5 -284.5t-98 -295t-172.5 -224.5q-178 -156 -415 -151zM1054 767l9 106q6 109 -19 201.5t-84.5 141t-150.5 51.5 q-126 4 -223.5 -71t-158 -228t-70.5 -384q-10 -183 56 -288t198 -109q173 -5 285.5 130t147.5 380zM672 -3l-47 -31q-131 -86 -138 -172q-5 -57 51 -60q27 -1 88 22l12 -144q-69 -43 -154 -41q-87 0 -139.5 54.5t-50.5 138.5q3 179 267 297zM1199 1606h-669l26 158h668z" />
<glyph unicode="&#x1ed;" horiz-adv-x="1141" d="M73 545q17 159 93.5 289t196.5 201t266 67q139 -2 240 -74t147.5 -197t32.5 -278q-16 -172 -93.5 -304t-198 -202.5t-267.5 -66.5q-138 2 -238.5 73.5t-147.5 196t-34 274.5zM306 408q5 -105 55.5 -168.5t140.5 -66.5q122 -3 204.5 94t103.5 265l6 98q0 128 -51 201 t-148 77q-152 4 -240 -149q-53 -93 -67 -214q-8 -84 -4 -137zM558 -5l-47 -31q-131 -86 -138 -172q-5 -57 51 -60q27 -1 88 22l12 -144q-69 -43 -154 -41q-87 0 -139.5 54.5t-50.5 138.5q3 179 267 297zM1005 1296h-669l26 158h668z" />
<glyph unicode="&#x1ee;" horiz-adv-x="1301" d="M695 772q149 -10 251 -85t147 -205.5t28 -295.5q-19 -185 -106.5 -325t-230.5 -213t-322 -69q-223 4 -350.5 136t-135.5 355h244q7 -155 70 -222t186 -70q190 -4 295 127.5t111 362.5l-1 68q-9 121 -76.5 183.5t-187.5 62.5l-245 1l30 174l510 495h-706l36 204h1017 l-29 -168zM769 1678l169 153l209 4v-16l-308 -276h-146l-233 277v16l196 -4z" />
<glyph unicode="&#x1ef;" horiz-adv-x="1164" d="M774 886h-586l35 196h882l-28 -166l-443 -438q167 -25 255 -141.5t76 -293.5q-11 -134 -85.5 -234t-199 -153.5t-270.5 -50.5q-128 3 -226 56.5t-149 149.5t-46 219l236 -1q-4 -100 49.5 -163t149.5 -65q113 -4 201.5 61.5t104.5 177.5q17 131 -42 200t-189 73l-154 1 l32 182zM684 1380l160 140l209 3l-1 -21l-293 -250h-153l-227 248l1 23l194 -2z" />
<glyph unicode="&#x1f0;" horiz-adv-x="544" d="M476 1082l-195 -1144q-24 -181 -126 -279.5t-265 -98.5q-61 0 -131 17l31 193q53 -16 95 -16q127 0 160 194l194 1134h237zM385 1349l169 153l209 4v-16l-308 -276h-146l-233 277v16l196 -4z" />
<glyph unicode="&#x1f1;" horiz-adv-x="2514" d="M39 0l252 1456l394 -1q182 0 313.5 -90.5t190.5 -250t36 -351.5l-11 -79q-30 -201 -132.5 -356.5t-264.5 -241.5t-356 -86h-422zM503 1252l-182 -1050l146 -1q198 0 328.5 125.5t167.5 346.5q26 152 19 265q-9 145 -84.5 227t-209.5 86zM1622 202h748l-36 -202h-1053 l31 176l909 1076h-718l36 204h1024l-30 -172z" />
<glyph unicode="&#x1f2;" horiz-adv-x="2317" d="M39 0l252 1456l394 -1q182 0 313.5 -90.5t190.5 -250t36 -351.5l-11 -79q-30 -201 -132.5 -356.5t-264.5 -241.5t-356 -86h-422zM503 1252l-182 -1050l146 -1q198 0 328.5 125.5t167.5 346.5q26 152 19 265q-9 145 -84.5 227t-209.5 86zM1620 194h550l-34 -194h-853 l30 171l648 715h-515l35 196h823l-29 -165z" />
<glyph unicode="&#x1f3;" horiz-adv-x="2140" d="M68 542q20 167 90 300t173 198.5t229 62.5q165 -4 258 -123l104 556h238l-267 -1536h-212l16 112q-126 -137 -296 -133q-151 2 -241.5 116.5t-97.5 304.5q-3 62 3 121zM298 449q-7 -124 38.5 -197t135.5 -75q137 -4 237 133l81 465q-47 125 -182 129q-136 4 -219 -120 t-91 -335zM1443 194h550l-34 -194h-853l30 171l648 715h-515l35 196h823l-29 -165z" />
<glyph unicode="&#x1f4;" horiz-adv-x="1362" d="M1168 189q-80 -104 -226 -157.5t-326 -51.5q-144 1 -254 64.5t-174.5 185t-73.5 276.5q-7 120 25 306t114.5 330.5t200.5 226.5q160 111 366 107q219 -4 342.5 -126t139.5 -342l-239 1q-22 257 -249 264q-170 5 -279.5 -119.5t-149.5 -359.5q-23 -137 -25 -224 q-6 -179 65.5 -282t208.5 -105q175 -4 288 87l54 285h-292l34 192h535zM938 1867h285l-316 -303h-206z" />
<glyph unicode="&#x1f5;" horiz-adv-x="1136" d="M70 542q19 162 87.5 293t172.5 200.5t238 67.5q178 -4 269 -131l37 111l216 -1l-179 -1052q-30 -212 -178.5 -337.5t-361.5 -119.5q-114 2 -216 52t-164 132l126 143q95 -131 248 -135q116 -4 199.5 63.5t111.5 192.5l17 76q-125 -121 -284 -117q-152 2 -243.5 115 t-100.5 304q-3 60 5 143zM305 521q-6 -51 -4 -110q2 -106 48 -168t131 -65q135 -5 236 125l85 478q-52 119 -185 123q-120 3 -202 -93t-107 -269zM759 1536h285l-316 -303h-206z" />
<glyph unicode="&#x1f6;" horiz-adv-x="2151" d="M2108 1081l-101 -598q-33 -234 -187.5 -371.5t-386.5 -133.5q-221 4 -338.5 142t-91.5 362l25 165h-630l-112 -647h-247l253 1456h247l-106 -606h630l105 606h247l-166 -975q-8 -60 -3 -113q17 -181 201 -186q261 -7 313 300l101 599h247z" />
<glyph unicode="&#x1f7;" horiz-adv-x="1328" d="M519 1421q124 56 254 54q259 -4 390 -173.5t97 -446.5l-4 -32q-56 -422 -427 -709q-249 -192 -565 -268l-51 -262h-246l324 1872l235 1zM761 1273q-154 4 -273 -115l-201 -1108q290 100 481 297t234 440q22 125 18 224l-4 38q-32 219 -255 224z" />
<glyph unicode="&#x1f8;" horiz-adv-x="1420" d="M1161 0h-239l-455 1043l-181 -1043h-247l253 1456h239l455 -1047l182 1047h246zM985 1543h-181l-215 303h254z" />
<glyph unicode="&#x1f9;" horiz-adv-x="1115" d="M423 1083l-24 -127q139 150 321 146q152 -3 225 -108.5t54 -294.5l-117 -699h-237l118 702q5 43 1 80q-13 119 -142 122q-135 2 -237 -133l-135 -771h-237l187 1082zM783 1233h-181l-215 303h254z" />
<glyph unicode="&#x1fa;" horiz-adv-x="1332" d="M893 339h-545l-174 -339h-266l786 1456h222l282 -1456h-248zM452 543h408l-99 602zM997 1969l245 -1l-272 -193l-166 1zM650 1546q0 79 55 132.5t132 53.5q76 0 125 -52t49 -120q0 -77 -54 -129t-130 -52t-126.5 49t-50.5 118zM747 1548q3 -81 67 -81q36 0 65 27.5 t35 63.5q4 36 -14 60.5t-48 24.5q-38 0 -65.5 -26t-39.5 -69z" />
<glyph unicode="&#x1fb;" horiz-adv-x="1085" d="M659 0q-12 40 -10 101q-134 -125 -289 -121q-141 2 -233.5 90.5t-86.5 224.5q8 171 148 269t376 98l154 -2l14 74q6 39 0 73q-20 108 -143 111q-76 2 -133.5 -38.5t-70.5 -108.5l-237 -2q7 100 71 175.5t170 117.5t224 40q177 -4 276 -106.5t82 -265.5l-83 -507l-8 -90 q-3 -59 15 -115l-1 -18h-235zM415 174q75 -2 139 34.5t109 94.5l37 205l-113 1q-134 0 -214 -50.5t-91 -138.5q-8 -67 29.5 -105.5t103.5 -40.5zM829 1660l245 -1l-272 -193l-166 1zM482 1237q0 79 55 132.5t132 53.5q76 0 125 -52t49 -120q0 -77 -54 -129t-130 -52 t-126.5 49t-50.5 118zM579 1239q3 -81 67 -81q36 0 65 27.5t35 63.5q4 36 -14 60.5t-48 24.5q-38 0 -65.5 -26t-39.5 -69z" />
<glyph unicode="&#x1fc;" horiz-adv-x="1877" d="M1719 0h-871l44 340h-479l-238 -340h-296l1062 1456h971l-35 -197h-626l-55 -408h533l-35 -197h-524l-60 -458h644zM562 555h358l85 634zM1183 1858h285l-316 -303h-206z" />
<glyph unicode="&#x1fd;" horiz-adv-x="1687" d="M1130 -19q-115 0 -209 41.5t-147 117.5q-172 -164 -425 -160q-154 2 -244 89.5t-82 234.5q10 161 140.5 250t360.5 89l191 -2l13 74q6 38 2 72q-17 117 -136 120q-87 2 -146.5 -40t-72.5 -115l-237 19q7 98 68.5 174.5t171 118t232.5 39.5q215 -5 305 -133 q155 136 340 132q194 -6 293.5 -141t73.5 -349l-21 -141h-669q-14 -136 45.5 -214.5t174.5 -80.5q85 -2 160.5 24.5t149.5 65.5l58 -168q-65 -57 -170.5 -88t-219.5 -29zM402 163q114 0 252 102l40 210l-169 1q-107 -3 -179.5 -50t-84.5 -126q-9 -63 30 -99t111 -38z M1239 908q-96 3 -169 -64.5t-119 -202.5h438l6 33q7 45 3 87q-14 141 -159 147zM1056 1537h285l-316 -303h-206z" />
<glyph unicode="&#x1fe;" horiz-adv-x="1380" d="M599 -21q-156 4 -279 77l-118 -151l-181 1l194 240q-108 176 -106 402l3 79q19 268 115.5 459t251 292t344.5 99q190 -4 318 -103l112 143h179l-196 -244q56 -121 70 -249q17 -170 -20 -375.5t-137.5 -361.5t-242.5 -233.5t-307 -74.5zM349 522q-3 -85 17 -168l637 831 q-62 78 -191 83q-166 5 -279 -123t-154 -361q-26 -149 -30 -262zM1073 907q5 70 -1 141l-621 -810q63 -50 159 -52q176 -5 289.5 134.5t149.5 389.5l17 121zM981 1920h285l-316 -303h-206z" />
<glyph unicode="&#x1ff;" horiz-adv-x="1135" d="M68 544q15 118 62 223.5t125 183.5q156 157 379 153q94 -2 189 -37l97 144l155 -1l-146 -210q112 -132 119 -327q2 -58 -6 -141q-20 -159 -97.5 -288t-199.5 -198.5t-270 -67.5q-86 2 -177 33l-101 -148l-155 1l146 209q-118 130 -126 329q-3 61 4 121zM291 399 q-1 -63 19 -124l404 615q-38 19 -91 21q-100 1 -175.5 -63.5t-115.5 -185t-41 -263.5zM820 673q1 60 -17 120l-400 -607q40 -14 82 -16q121 -3 206.5 92t115.5 270q12 84 13 141zM744 1534h285l-316 -303h-206z" />
<glyph unicode="&#x200;" horiz-adv-x="1332" d="M893 339h-545l-174 -339h-266l786 1456h222l282 -1456h-248zM452 543h408l-99 602zM795 1559h-221l-245 266h274zM1085 1559h-206l-192 266h260z" />
<glyph unicode="&#x201;" horiz-adv-x="1085" d="M659 0q-12 40 -10 101q-134 -125 -289 -121q-141 2 -233.5 90.5t-86.5 224.5q8 171 148 269t376 98l154 -2l14 74q6 39 0 73q-20 108 -143 111q-76 2 -133.5 -38.5t-70.5 -108.5l-237 -2q7 100 71 175.5t170 117.5t224 40q177 -4 276 -106.5t82 -265.5l-83 -507l-8 -90 q-3 -59 15 -115l-1 -18h-235zM415 174q75 -2 139 34.5t109 94.5l37 205l-113 1q-134 0 -214 -50.5t-91 -138.5q-8 -67 29.5 -105.5t103.5 -40.5zM627 1250h-221l-245 266h274zM917 1250h-206l-192 266h260z" />
<glyph unicode="&#x202;" horiz-adv-x="1332" d="M893 339h-545l-174 -339h-266l786 1456h222l282 -1456h-248zM452 543h408l-99 602zM974 1589q5 140 -112 140q-62 0 -103.5 -36.5t-54.5 -102.5l-177 -1q10 131 102.5 208.5t233.5 75.5q134 -4 212.5 -82t76.5 -203z" />
<glyph unicode="&#x203;" horiz-adv-x="1085" d="M659 0q-12 40 -10 101q-134 -125 -289 -121q-141 2 -233.5 90.5t-86.5 224.5q8 171 148 269t376 98l154 -2l14 74q6 39 0 73q-20 108 -143 111q-76 2 -133.5 -38.5t-70.5 -108.5l-237 -2q7 100 71 175.5t170 117.5t224 40q177 -4 276 -106.5t82 -265.5l-83 -507l-8 -90 q-3 -59 15 -115l-1 -18h-235zM415 174q75 -2 139 34.5t109 94.5l37 205l-113 1q-134 0 -214 -50.5t-91 -138.5q-8 -67 29.5 -105.5t103.5 -40.5zM806 1279q5 140 -112 140q-62 0 -103.5 -36.5t-54.5 -102.5l-177 -1q10 131 102.5 208.5t233.5 75.5q134 -4 212.5 -82 t76.5 -203z" />
<glyph unicode="&#x204;" horiz-adv-x="1133" d="M979 650h-580l-78 -448h678l-35 -202h-925l252 1456h919l-36 -204h-671l-70 -402h581zM739 1566h-221l-245 266h274zM1029 1566h-206l-192 266h260z" />
<glyph unicode="&#x205;" horiz-adv-x="1076" d="M506 -20q-141 3 -244.5 71t-153 186t-37.5 263l3 41q18 165 96.5 296.5t195.5 199.5t254 65q203 -4 304.5 -151t76.5 -383l-14 -104h-681q-9 -129 52 -208t168 -81q153 -5 282 133l120 -126q-68 -97 -179 -150.5t-243 -51.5zM607 908q-188 6 -282 -266l449 -1l4 21 q7 46 1 90q-11 71 -56 112t-116 44zM604 1250h-221l-245 266h274zM894 1250h-206l-192 266h260z" />
<glyph unicode="&#x206;" horiz-adv-x="1133" d="M979 650h-580l-78 -448h678l-35 -202h-925l252 1456h919l-36 -204h-671l-70 -402h581zM918 1596q5 140 -112 140q-62 0 -103.5 -36.5t-54.5 -102.5l-177 -1q10 131 102.5 208.5t233.5 75.5q134 -4 212.5 -82t76.5 -203z" />
<glyph unicode="&#x207;" horiz-adv-x="1076" d="M506 -20q-141 3 -244.5 71t-153 186t-37.5 263l3 41q18 165 96.5 296.5t195.5 199.5t254 65q203 -4 304.5 -151t76.5 -383l-14 -104h-681q-9 -129 52 -208t168 -81q153 -5 282 133l120 -126q-68 -97 -179 -150.5t-243 -51.5zM607 908q-188 6 -282 -266l449 -1l4 21 q7 46 1 90q-11 71 -56 112t-116 44zM783 1279q5 140 -112 140q-62 0 -103.5 -36.5t-54.5 -102.5l-177 -1q10 131 102.5 208.5t233.5 75.5q134 -4 212.5 -82t76.5 -203z" />
<glyph unicode="&#x208;" horiz-adv-x="571" d="M299 0h-246l253 1456h246zM411 1566h-221l-245 266h274zM701 1566h-206l-192 266h260z" />
<glyph unicode="&#x209;" horiz-adv-x="532" d="M271 0h-237l188 1082h237zM336 1242h-221l-245 266h274zM626 1242h-206l-192 266h260z" />
<glyph unicode="&#x20a;" horiz-adv-x="571" d="M299 0h-246l253 1456h246zM590 1596q5 140 -112 140q-62 0 -103.5 -36.5t-54.5 -102.5l-177 -1q10 131 102.5 208.5t233.5 75.5q134 -4 212.5 -82t76.5 -203z" />
<glyph unicode="&#x20b;" horiz-adv-x="532" d="M271 0h-237l188 1082h237zM515 1271q5 140 -112 140q-62 0 -103.5 -36.5t-54.5 -102.5l-177 -1q10 131 102.5 208.5t233.5 75.5q134 -4 212.5 -82t76.5 -203z" />
<glyph unicode="&#x20c;" horiz-adv-x="1382" d="M599 -20q-142 3 -249.5 68t-167.5 188.5t-68 280.5q-7 125 22.5 292t105 304.5t180.5 224.5q173 142 400 138q216 -4 344.5 -149t140.5 -392q6 -124 -22.5 -284.5t-98 -295t-172.5 -224.5q-178 -156 -415 -151zM1054 767l9 106q6 109 -19 201.5t-84.5 141t-150.5 51.5 q-126 4 -223.5 -71t-158 -228t-70.5 -384q-10 -183 56 -288t198 -109q173 -5 285.5 130t147.5 380zM818 1559h-221l-245 266h274zM1108 1559h-206l-192 266h260z" />
<glyph unicode="&#x20d;" horiz-adv-x="1141" d="M73 545q17 159 93.5 289t196.5 201t266 67q139 -2 240 -74t147.5 -197t32.5 -278q-16 -172 -93.5 -304t-198 -202.5t-267.5 -66.5q-138 2 -238.5 73.5t-147.5 196t-34 274.5zM306 408q5 -105 55.5 -168.5t140.5 -66.5q122 -3 204.5 94t103.5 265l6 98q0 128 -51 201 t-148 77q-152 4 -240 -149q-53 -93 -67 -214q-8 -84 -4 -137zM624 1250h-221l-245 266h274zM914 1250h-206l-192 266h260z" />
<glyph unicode="&#x20e;" horiz-adv-x="1382" d="M599 -20q-142 3 -249.5 68t-167.5 188.5t-68 280.5q-7 125 22.5 292t105 304.5t180.5 224.5q173 142 400 138q216 -4 344.5 -149t140.5 -392q6 -124 -22.5 -284.5t-98 -295t-172.5 -224.5q-178 -156 -415 -151zM1054 767l9 106q6 109 -19 201.5t-84.5 141t-150.5 51.5 q-126 4 -223.5 -71t-158 -228t-70.5 -384q-10 -183 56 -288t198 -109q173 -5 285.5 130t147.5 380zM997 1589q5 140 -112 140q-62 0 -103.5 -36.5t-54.5 -102.5l-177 -1q10 131 102.5 208.5t233.5 75.5q134 -4 212.5 -82t76.5 -203z" />
<glyph unicode="&#x20f;" horiz-adv-x="1141" d="M73 545q17 159 93.5 289t196.5 201t266 67q139 -2 240 -74t147.5 -197t32.5 -278q-16 -172 -93.5 -304t-198 -202.5t-267.5 -66.5q-138 2 -238.5 73.5t-147.5 196t-34 274.5zM306 408q5 -105 55.5 -168.5t140.5 -66.5q122 -3 204.5 94t103.5 265l6 98q0 128 -51 201 t-148 77q-152 4 -240 -149q-53 -93 -67 -214q-8 -84 -4 -137zM803 1279q5 140 -112 140q-62 0 -103.5 -36.5t-54.5 -102.5l-177 -1q10 131 102.5 208.5t233.5 75.5q134 -4 212.5 -82t76.5 -203z" />
<glyph unicode="&#x210;" horiz-adv-x="1250" d="M662 561h-278l-98 -561h-247l253 1456l459 -1q237 0 363 -114t109 -317q-11 -141 -94 -244.5t-233 -162.5l215 -602l-1 -15h-262zM418 764l239 -2q129 0 215.5 67.5t101.5 183.5q15 113 -40 173.5t-167 64.5l-264 1zM717 1559h-221l-245 266h274zM1007 1559h-206 l-192 266h260z" />
<glyph unicode="&#x211;" horiz-adv-x="708" d="M724 860q-46 10 -93 10q-156 4 -248 -129l-130 -741h-237l187 1082l225 1l-24 -123q111 147 256 144q33 0 91 -15zM473 1250h-221l-245 266h274zM763 1250h-206l-192 266h260z" />
<glyph unicode="&#x212;" horiz-adv-x="1250" d="M662 561h-278l-98 -561h-247l253 1456l459 -1q237 0 363 -114t109 -317q-11 -141 -94 -244.5t-233 -162.5l215 -602l-1 -15h-262zM418 764l239 -2q129 0 215.5 67.5t101.5 183.5q15 113 -40 173.5t-167 64.5l-264 1zM896 1589q5 140 -112 140q-62 0 -103.5 -36.5 t-54.5 -102.5l-177 -1q10 131 102.5 208.5t233.5 75.5q134 -4 212.5 -82t76.5 -203z" />
<glyph unicode="&#x213;" horiz-adv-x="708" d="M724 860q-46 10 -93 10q-156 4 -248 -129l-130 -741h-237l187 1082l225 1l-24 -123q111 147 256 144q33 0 91 -15zM652 1279q5 140 -112 140q-62 0 -103.5 -36.5t-54.5 -102.5l-177 -1q10 131 102.5 208.5t233.5 75.5q134 -4 212.5 -82t76.5 -203z" />
<glyph unicode="&#x214;" horiz-adv-x="1305" d="M1327 1456l-165 -973q-34 -233 -199.5 -371t-400.5 -134q-218 4 -344.5 132t-115.5 334l3 38l165 974h246l-165 -975q-18 -139 41 -217t182 -82q135 -4 225 73t115 221l167 980h246zM778 1559h-221l-245 266h274zM1068 1559h-206l-192 266h260z" />
<glyph unicode="&#x215;" horiz-adv-x="1114" d="M685 107q-123 -131 -308 -127q-105 2 -174.5 52t-99 139.5t-17.5 210.5l117 700h237l-118 -703q-4 -37 -1 -72q10 -124 125 -129q157 -6 254 126l136 778h237l-187 -1082h-222zM629 1250h-221l-245 266h274zM919 1250h-206l-192 266h260z" />
<glyph unicode="&#x216;" horiz-adv-x="1305" d="M1327 1456l-165 -973q-34 -233 -199.5 -371t-400.5 -134q-218 4 -344.5 132t-115.5 334l3 38l165 974h246l-165 -975q-18 -139 41 -217t182 -82q135 -4 225 73t115 221l167 980h246zM957 1589q5 140 -112 140q-62 0 -103.5 -36.5t-54.5 -102.5l-177 -1 q10 131 102.5 208.5t233.5 75.5q134 -4 212.5 -82t76.5 -203z" />
<glyph unicode="&#x217;" horiz-adv-x="1114" d="M685 107q-123 -131 -308 -127q-105 2 -174.5 52t-99 139.5t-17.5 210.5l117 700h237l-118 -703q-4 -37 -1 -72q10 -124 125 -129q157 -6 254 126l136 778h237l-187 -1082h-222zM808 1279q5 140 -112 140q-62 0 -103.5 -36.5t-54.5 -102.5l-177 -1q10 131 102.5 208.5 t233.5 75.5q134 -4 212.5 -82t76.5 -203z" />
<glyph unicode="&#x218;" horiz-adv-x="1209" d="M844 382q22 144 -157 214l-81 30q-226 79 -321 187t-86 251q8 124 84.5 218.5t201.5 145.5t266 48q136 -3 242 -59.5t162 -157t52 -229.5l-246 1q7 114 -50.5 177t-173.5 66q-117 2 -197.5 -55t-94.5 -154q-20 -127 170 -200l75 -27q229 -82 320 -192.5t80 -261.5 q-10 -123 -81 -214.5t-196.5 -141.5t-276.5 -48q-143 1 -259.5 60t-178.5 163.5t-57 237.5l247 -1q-8 -124 61 -191t198 -69q120 -2 200.5 51t96.5 151zM392 -519l-123 79q95 133 116 253l15 83h196l-13 -86q-36 -197 -191 -329z" />
<glyph unicode="&#x219;" horiz-adv-x="1035" d="M663 300q17 99 -128.5 137.5t-198.5 61.5q-206 88 -199 268q5 146 132.5 241.5t305.5 93.5q172 -2 280.5 -97t106.5 -249l-235 1q2 75 -41 117.5t-118 44.5q-79 0 -135.5 -39t-65.5 -102q-14 -91 128 -126.5t210 -65.5q198 -87 191 -272q-5 -103 -67.5 -179.5 t-167.5 -117t-223 -37.5q-177 2 -293.5 103t-114.5 259l229 -1q2 -87 52 -132t137 -46q88 0 146.5 36.5t68.5 100.5zM314 -529l-123 79q95 133 116 253l15 83h196l-13 -86q-36 -197 -191 -329z" />
<glyph unicode="&#x21a;" horiz-adv-x="1216" d="M1278 1252h-440l-217 -1252h-246l218 1252h-437l36 204h1122zM375 -516l-123 79q95 133 116 253l15 83h196l-13 -86q-36 -197 -191 -329z" />
<glyph unicode="&#x21b;" horiz-adv-x="671" d="M547 1345l-46 -263h185l-31 -180h-186l-102 -606q-3 -25 -1 -45q6 -65 80 -68q37 0 84 9l-16 -190q-74 -21 -149 -21q-124 2 -185.5 84.5t-48.5 218.5l101 618h-173l32 180h172l46 263h238zM205 -519l-123 79q95 133 116 253l15 83h196l-13 -86q-36 -197 -191 -329z" />
<glyph unicode="&#x21c;" horiz-adv-x="1204" d="M147 501l169 52q178 56 305 125t199.5 162.5t88.5 213.5q13 99 -46.5 159t-174.5 62q-105 2 -184.5 -54.5t-96.5 -152.5l-245 -2q14 184 167.5 297.5t371.5 111.5q103 -1 193 -28.5t154 -83.5q125 -110 109 -294q-18 -211 -222 -388q107 -90 119 -245q10 -157 -51 -297.5 t-184 -249.5t-326.5 -192.5t-494.5 -133.5l22 203q383 79 570 221t219 356q11 72 8 114q-5 66 -38 103q-278 -163 -651 -247z" />
<glyph unicode="&#x21d;" horiz-adv-x="1012" d="M119 363q206 58 318.5 116t173 132.5t71.5 164.5q9 69 -29.5 104t-105.5 36q-74 2 -132 -35t-73 -105l-237 -1q10 148 136 238.5t309 88.5q177 -2 280 -85t93 -223q-10 -164 -175 -315q108 -104 92 -284q-21 -251 -232.5 -410.5t-613.5 -221.5l20 187q241 66 360.5 135 t181.5 172t59 230q-1 41 -15 81q-210 -123 -494 -186z" />
<glyph unicode="&#x21e;" horiz-adv-x="1421" d="M1162 0h-246l112 647h-630l-112 -647h-247l253 1456h247l-106 -606h630l105 606h247zM875 1700l169 153l209 4v-16l-308 -276h-146l-233 277v16l196 -4z" />
<glyph unicode="&#x21f;" horiz-adv-x="1113" d="M407 963q135 142 307 138q154 -2 228.5 -109t55.5 -296l-116 -696h-237l118 699q5 43 2 80q-13 122 -144 125q-132 2 -236 -130l-135 -774h-237l266 1536h238zM683 1732l169 153l209 4v-16l-308 -276h-146l-233 277v16l196 -4z" />
<glyph unicode="&#x220;" horiz-adv-x="1307" d="M507 1397q153 81 307 77q133 -1 237 -62.5t154 -169t36 -239.5l-242 -1419h-238l243 1420q30 264 -215 272q-143 4 -300 -76l-213 -1200h-237l253 1456l226 3z" />
<glyph unicode="&#x221;" horiz-adv-x="1454" d="M67 542q20 167 90 300t173.5 198.5t229.5 62.5q165 -4 258 -123l104 556h238l-258 -1447q58 14 114 14q125 -2 198.5 -72.5t69.5 -187.5q-5 -127 -102 -204t-242 -75q-116 2 -190.5 49.5t-96.5 129.5l-172 -145l-103 157l276 222l29 123q-120 -124 -282 -120 q-150 2 -240.5 114.5t-99.5 305.5q-3 62 3 121zM303 521l-5 -72q-7 -126 38.5 -198t135.5 -74q137 -4 237 133l81 465q-47 125 -182 129q-120 3 -200.5 -93.5t-102.5 -267.5zM983 -74q-26 2 -51 -6l-49 -16l-11 -55q-6 -45 12 -76.5t68 -31.5q42 0 74.5 28.5t38.5 70.5 t-19 63t-63 23z" />
<glyph unicode="&#x222;" horiz-adv-x="1304" d="M720 920q298 0 327 199q9 66 -18.5 104t-101.5 58l19 195q169 -13 262 -108t82 -249q-8 -116 -71.5 -193t-163.5 -126q137 -132 120 -345q-18 -218 -182 -346.5t-425 -128.5h-16q-228 7 -358 129.5t-113 327.5q21 239 244 374q-140 101 -129 292q11 170 130.5 268 t324.5 107l-21 -195q-92 -25 -134 -69t-52 -111q-23 -162 199 -180zM670 713q-143 0 -235.5 -74.5t-107.5 -201.5q-15 -113 46 -179t188 -73l20 -1q148 0 240 72t107 199q15 116 -48 184t-188 73z" />
<glyph unicode="&#x223;" horiz-adv-x="1260" d="M690 906q153 0 241 63t103 180q11 80 -15.5 134.5t-100.5 86.5l20 187q164 -14 253.5 -124.5t77.5 -279.5q-19 -239 -245 -355q140 -129 123 -346q-18 -216 -179.5 -344t-420.5 -128h-18q-230 7 -356 129t-110 325q21 243 247 374q-141 115 -126 328q9 123 68.5 217.5 t160.5 147.5t229 58l-20 -187q-84 -34 -136.5 -91t-64.5 -149q-28 -217 238 -225zM647 713q-144 0 -237.5 -75.5t-110.5 -204.5q-14 -110 44 -179t180 -79l33 -2q147 0 242 74t112 205q15 119 -50.5 186.5t-212.5 74.5z" />
<glyph unicode="&#x224;" horiz-adv-x="1255" d="M856 -256q21 82 19 143q-7 105 -114 113h-788l31 176l909 1076h-718l36 204h1024l-30 -172l-911 -1082l454 -1q157 -4 243 -90t75 -234q-6 -66 -29 -134z" />
<glyph unicode="&#x225;" horiz-adv-x="1077" d="M967 917l-655 -723l269 -1q196 -6 275 -112q55 -74 46 -185q-3 -55 -27 -134h-192q15 50 18 79q19 149 -125 159h-601l30 171l648 715h-515l35 196h823z" />
<glyph unicode="&#x226;" horiz-adv-x="1332" d="M893 339h-545l-174 -339h-266l786 1456h222l282 -1456h-248zM452 543h408l-99 602zM725 1684q0 56 35.5 91.5t90.5 37.5t92 -32.5t37 -88.5q0 -57 -35.5 -91t-90.5 -36q-54 -2 -91.5 32.5t-37.5 86.5z" />
<glyph unicode="&#x227;" horiz-adv-x="1085" d="M659 0q-12 40 -10 101q-134 -125 -289 -121q-141 2 -233.5 90.5t-86.5 224.5q8 171 148 269t376 98l154 -2l14 74q6 39 0 73q-20 108 -143 111q-76 2 -133.5 -38.5t-70.5 -108.5l-237 -2q7 100 71 175.5t170 117.5t224 40q177 -4 276 -106.5t82 -265.5l-83 -507l-8 -90 q-3 -59 15 -115l-1 -18h-235zM415 174q75 -2 139 34.5t109 94.5l37 205l-113 1q-134 0 -214 -50.5t-91 -138.5q-8 -67 29.5 -105.5t103.5 -40.5zM557 1374q0 56 35.5 91.5t90.5 37.5t92 -32.5t37 -88.5q0 -57 -35.5 -91t-90.5 -36q-54 -2 -91.5 32.5t-37.5 86.5z" />
<glyph unicode="&#x228;" horiz-adv-x="1133" d="M979 650h-580l-78 -448h678l-35 -202h-925l252 1456h919l-36 -204h-671l-70 -402h581zM589 14l-19 -59q62 -14 93.5 -56.5t30.5 -105.5q-2 -109 -91 -168.5t-256 -65.5l2 141q137 6 153 96q9 60 -73 73l-56 6l45 137z" />
<glyph unicode="&#x229;" horiz-adv-x="1076" d="M506 -20q-141 3 -244.5 71t-153 186t-37.5 263l3 41q18 165 96.5 296.5t195.5 199.5t254 65q203 -4 304.5 -151t76.5 -383l-14 -104h-681q-9 -129 52 -208t168 -81q153 -5 282 133l120 -126q-68 -97 -179 -150.5t-243 -51.5zM607 908q-188 6 -282 -266l449 -1l4 21 q7 46 1 90q-11 71 -56 112t-116 44zM539 4l-19 -59q62 -14 93.5 -56.5t30.5 -105.5q-2 -109 -91 -168.5t-256 -65.5l2 141q137 6 153 96q9 60 -73 73l-56 6l45 137z" />
<glyph unicode="&#x22a;" horiz-adv-x="1382" d="M599 -20q-142 3 -249.5 68t-167.5 188.5t-68 280.5q-7 125 22.5 292t105 304.5t180.5 224.5q173 142 400 138q216 -4 344.5 -149t140.5 -392q6 -124 -22.5 -284.5t-98 -295t-172.5 -224.5q-178 -156 -415 -151zM1054 767l9 106q6 109 -19 201.5t-84.5 141t-150.5 51.5 q-126 4 -223.5 -71t-158 -228t-70.5 -384q-10 -183 56 -288t198 -109q173 -5 285.5 130t147.5 380zM1242 1876h-667l28 158h667zM533 1676q0 48 33.5 81.5t86.5 35.5q51 2 87 -30t36 -82q0 -52 -36.5 -84.5t-84.5 -32.5q-50 -2 -86 30t-36 82zM1092 1792q51 2 87 -30t36 -82 q0 -52 -36.5 -84.5t-84.5 -32.5q-53 -2 -87.5 31t-34.5 81t33.5 81.5t86.5 35.5z" />
<glyph unicode="&#x22b;" horiz-adv-x="1141" d="M73 545q17 159 93.5 289t196.5 201t266 67q139 -2 240 -74t147.5 -197t32.5 -278q-16 -172 -93.5 -304t-198 -202.5t-267.5 -66.5q-138 2 -238.5 73.5t-147.5 196t-34 274.5zM306 408q5 -105 55.5 -168.5t140.5 -66.5q122 -3 204.5 94t103.5 265l6 98q0 128 -51 201 t-148 77q-152 4 -240 -149q-53 -93 -67 -214q-8 -84 -4 -137zM336 1363q0 26 9.5 48t26 38t38.5 25.5t48 10.5q25 1 48 -7.5t39.5 -23.5t26.5 -37t10 -48t-9.5 -48t-26.5 -38.5t-39.5 -25.5t-47.5 -10q-26 -1 -48.5 7.5t-39 24t-26 37t-9.5 47.5zM779 1362q0 26 9.5 48 t26 38t38.5 25.5t48 10.5q25 1 48 -7.5t39.5 -23.5t26.5 -37t10 -48t-9.5 -48t-26.5 -38.5t-39.5 -25.5t-47.5 -10q-26 -1 -48.5 7.5t-39 24t-26 37t-9.5 47.5zM1056 1595h-668l28 158h668z" />
<glyph unicode="&#x22c;" horiz-adv-x="1382" d="M599 -20q-142 3 -249.5 68t-167.5 188.5t-68 280.5q-7 125 22.5 292t105 304.5t180.5 224.5q173 142 400 138q216 -4 344.5 -149t140.5 -392q6 -124 -22.5 -284.5t-98 -295t-172.5 -224.5q-178 -156 -415 -151zM1054 767l9 106q6 109 -19 201.5t-84.5 141t-150.5 51.5 q-126 4 -223.5 -71t-158 -228t-70.5 -384q-10 -183 56 -288t198 -109q173 -5 285.5 130t147.5 380zM1160 1753q-10 -86 -56 -135.5t-113 -49.5q-37 0 -99 32.5t-80 37t-39 3.5q-59 -3 -90 -87l-101 28q10 84 57 135t115 51q35 0 98.5 -33t82 -37.5t38.5 -3.5q59 3 90 86z M1243 1880h-667l28 158h667z" />
<glyph unicode="&#x22d;" horiz-adv-x="1141" d="M73 545q17 159 93.5 289t196.5 201t266 67q139 -2 240 -74t147.5 -197t32.5 -278q-16 -172 -93.5 -304t-198 -202.5t-267.5 -66.5q-138 2 -238.5 73.5t-147.5 196t-34 274.5zM306 408q5 -105 55.5 -168.5t140.5 -66.5q122 -3 204.5 94t103.5 265l6 98q0 128 -51 201 t-148 77q-152 4 -240 -149q-53 -93 -67 -214q-8 -84 -4 -137zM1056 1514q-5 -49 -21.5 -96t-46 -84t-71.5 -59t-97 -21q-37 0 -68.5 15.5t-61.5 33.5t-60.5 32.5t-66.5 13.5q-47 -2 -72 -33t-36 -72l-150 9q5 49 22 96.5t47 85t72.5 60t97.5 21.5q36 -1 67.5 -16.5t62 -33.5 t61.5 -32.5t67 -13.5q47 2 73 33t38 72zM1063 1636h-668l28 158h668z" />
<glyph unicode="&#x22e;" horiz-adv-x="1382" d="M599 -20q-142 3 -249.5 68t-167.5 188.5t-68 280.5q-7 125 22.5 292t105 304.5t180.5 224.5q173 142 400 138q216 -4 344.5 -149t140.5 -392q6 -124 -22.5 -284.5t-98 -295t-172.5 -224.5q-178 -156 -415 -151zM1054 767l9 106q6 109 -19 201.5t-84.5 141t-150.5 51.5 q-126 4 -223.5 -71t-158 -228t-70.5 -384q-10 -183 56 -288t198 -109q173 -5 285.5 130t147.5 380zM748 1684q0 56 35.5 91.5t90.5 37.5t92 -32.5t37 -88.5q0 -57 -35.5 -91t-90.5 -36q-54 -2 -91.5 32.5t-37.5 86.5z" />
<glyph unicode="&#x22f;" horiz-adv-x="1141" d="M73 545q17 159 93.5 289t196.5 201t266 67q139 -2 240 -74t147.5 -197t32.5 -278q-16 -172 -93.5 -304t-198 -202.5t-267.5 -66.5q-138 2 -238.5 73.5t-147.5 196t-34 274.5zM306 408q5 -105 55.5 -168.5t140.5 -66.5q122 -3 204.5 94t103.5 265l6 98q0 128 -51 201 t-148 77q-152 4 -240 -149q-53 -93 -67 -214q-8 -84 -4 -137zM554 1374q0 56 35.5 91.5t90.5 37.5t92 -32.5t37 -88.5q0 -57 -35.5 -91t-90.5 -36q-54 -2 -91.5 32.5t-37.5 86.5z" />
<glyph unicode="&#x230;" horiz-adv-x="1382" d="M599 -20q-142 3 -249.5 68t-167.5 188.5t-68 280.5q-7 125 22.5 292t105 304.5t180.5 224.5q173 142 400 138q216 -4 344.5 -149t140.5 -392q6 -124 -22.5 -284.5t-98 -295t-172.5 -224.5q-178 -156 -415 -151zM1054 767l9 106q6 109 -19 201.5t-84.5 141t-150.5 51.5 q-126 4 -223.5 -71t-158 -228t-70.5 -384q-10 -183 56 -288t198 -109q173 -5 285.5 130t147.5 380zM752 1678q0 47 34 81t87 36q55 0 88.5 -33t33.5 -79q0 -50 -35 -83.5t-85 -33.5q-54 -2 -88.5 31t-34.5 81zM1241 1876h-667l28 158h667z" />
<glyph unicode="&#x231;" horiz-adv-x="1141" d="M73 545q17 159 93.5 289t196.5 201t266 67q139 -2 240 -74t147.5 -197t32.5 -278q-16 -172 -93.5 -304t-198 -202.5t-267.5 -66.5q-138 2 -238.5 73.5t-147.5 196t-34 274.5zM306 408q5 -105 55.5 -168.5t140.5 -66.5q122 -3 204.5 94t103.5 265l6 98q0 128 -51 201 t-148 77q-152 4 -240 -149q-53 -93 -67 -214q-8 -84 -4 -137zM555 1375q0 27 9 50.5t25.5 40.5t40 26.5t50.5 10.5q27 0 50.5 -8.5t41 -24.5t27.5 -38.5t10 -49.5t-9.5 -50.5t-26.5 -40.5t-40 -26.5t-50 -10.5q-27 0 -50.5 8.5t-40.5 24.5t-27 38.5t-10 49.5zM1060 1615 h-668l28 158h668z" />
<glyph unicode="&#x232;" horiz-adv-x="1221" d="M627 768l444 688h286l-642 -933l-91 -523h-248l96 549l-311 907h261zM1119 1606h-669l26 158h668z" />
<glyph unicode="&#x233;" horiz-adv-x="977" d="M440 350l340 732h262l-641 -1269q-134 -256 -353 -253q-54 2 -123 20l20 188l43 -4q86 -3 142 32.5t94 110.5l57 112l-181 1063h246zM956 1296h-669l26 158h668z" />
<glyph unicode="&#x234;" horiz-adv-x="949" d="M396 89q58 14 114 14q121 0 196.5 -70.5t71.5 -188.5q-5 -129 -103.5 -206t-242.5 -75q-119 3 -195 54q-69 47 -90 126l-171 -145l-103 158l274 223l270 1557h237zM478 -73q-30 1 -100 -22l-11 -56q-3 -22 0 -42q7 -66 79 -66q39 0 73 28.5t40 71.5q6 41 -18.5 62.5 t-62.5 23.5z" />
<glyph unicode="&#x235;" horiz-adv-x="1444" d="M763 702q5 43 1 80q-13 119 -142 122q-135 2 -237 -133l-135 -771h-237l187 1082l223 1l-24 -127q138 151 321 147q103 -2 170.5 -52t95 -140.5t13.5 -211.5l-108 -610q58 14 114 14q120 0 195.5 -70.5t71.5 -188.5q-5 -127 -102 -204.5t-241 -75.5q-118 3 -191.5 50.5 t-94.5 128.5l-171 -145l-104 157l274 223zM973 -74q-29 1 -101 -22l-10 -55q-3 -23 0 -43q7 -65 79 -65q43 0 75.5 28.5t38.5 70.5q5 41 -19.5 62.5t-62.5 23.5z" />
<glyph unicode="&#x236;" horiz-adv-x="949" d="M729 902h-184l-77 -397q62 15 114 15q125 0 199.5 -73t68.5 -188q-5 -126 -103 -204t-243 -76q-117 2 -190.5 50t-93.5 129l-172 -145l-103 159l274 223l88 507h-174l32 180h173l46 263h237l-46 -263h186zM550 342q-30 1 -100 -22l-11 -55q-6 -45 11.5 -77.5t67.5 -32.5 q43 1 75 29.5t38 71.5q6 41 -18.5 62.5t-62.5 23.5z" />
<glyph unicode="&#x237;" horiz-adv-x="544" d="M476 1082l-195 -1144q-24 -181 -126 -279.5t-265 -98.5q-61 0 -131 17l31 193q53 -16 95 -16q127 0 160 194l194 1134h237z" />
<glyph unicode="&#x238;" horiz-adv-x="1800" d="M84 542q30 251 161 407.5t330 153.5q164 -4 259 -123l104 556h237l-107 -559q121 129 287 125q158 -4 246.5 -116t93.5 -307q1 -64 -6 -125l-2 -22q-20 -165 -88.5 -296t-171 -195.5t-227.5 -61.5q-172 4 -265 126l-25 -105h-215l17 111q-126 -135 -296 -131 q-99 1 -174.5 53t-117.5 150t-46 217q-3 62 3 121zM1451 558q6 52 7 112q0 109 -45 170.5t-130 63.5q-142 4 -241 -138l-78 -449q44 -135 189 -140q120 -3 196.5 90.5t99.5 268.5zM318 521l-5 -72q-4 -134 41.5 -202t132.5 -70q137 -4 237 133l82 465q-47 125 -183 129 q-118 3 -196.5 -88t-103.5 -261z" />
<glyph unicode="&#x239;" horiz-adv-x="1768" d="M1670 537q-20 -163 -88 -295.5t-171 -199t-227 -63.5q-169 4 -267 121l-97 -516h-237l98 509q-121 -117 -278 -113q-150 2 -242 114t-99 309q-3 59 5 145q19 163 88.5 294.5t172.5 197.5t234 63q175 -4 266 -130l38 109l194 1l-18 -112q124 135 295 131 q158 -4 247 -115.5t94 -303.5q1 -64 -5 -125zM1435 558l5 73q3 129 -42.5 200t-136.5 73q-135 4 -233 -125l-84 -479q47 -123 185 -127q120 -3 201 95.5t103 268.5zM303 522l-5 -72q-3 -135 42.5 -204.5t134.5 -71.5q131 -4 230 122l88 494q-52 114 -181 118 q-123 3 -204 -96t-103 -269z" />
<glyph unicode="&#x23a;" horiz-adv-x="1332" d="M893 339l-531 1l-23 -22l-165 -318h-141l-154 -159h-197l317 326l695 1289h222l54 -283l348 359h198l-513 -530l195 -1002h-248zM558 543h301l-42 266zM538 724l250 259l-27 162z" />
<glyph unicode="&#x23b;" horiz-adv-x="1307" d="M1193 475q-35 -227 -205.5 -363.5t-409.5 -132.5q-86 0 -175 27l-74 -131l-162 1l110 192q-168 158 -173 438q-3 122 32.5 318.5t134 349t238.5 229t307 74.5q81 0 177 -24l65 114l160 -1l-98 -172q80 -68 122 -169.5t50 -250.5l-243 1q0 66 -5.5 113t-26.5 91l-523 -983 q46 -15 94 -15q284 -8 361 292zM344 474q0 -108 37 -189l520 977q-44 11 -96 13q-169 2 -277 -121.5t-146 -348.5q-38 -224 -38 -331z" />
<glyph unicode="&#x23c;" horiz-adv-x="1050" d="M471 171q89 -2 155 50t86 136l224 1q-17 -163 -154 -272.5t-318 -107.5q-77 2 -159 25l-229 -419h-162l270 484q-118 124 -123 332q-7 200 62.5 364t202 253.5t300.5 85.5q43 0 98 -11l201 364h161l-231 -414q148 -113 148 -349l-220 1q4 88 -27 146l-362 -656 q36 -13 77 -13zM298 522l-11 -116q-4 -58 8 -116l342 619l-23 2q-119 2 -197.5 -83.5t-109.5 -253.5z" />
<glyph unicode="&#x23d;" horiz-adv-x="1158" d="M394 202h642l-36 -202h-888l253 1456h247zM685 647h-651l30 170h651z" />
<glyph unicode="&#x23e;" horiz-adv-x="1216" d="M1159 1567l169 1l-82 -115l63 2l-31 -203h-161l-377 -561l-119 -691h-246l36 199l-219 -324h-170l447 665l124 712h-437l36 204h892zM838 1252l-39 -219l149 219h-110z" />
<glyph unicode="&#x23f;" horiz-adv-x="1032" d="M655 301q18 98 -127.5 137.5t-202.5 65.5q-195 87 -188 262q7 150 135 244t307 92q175 -4 280 -98t103 -248l-234 1q2 75 -40 117.5t-117 44.5q-79 0 -137 -39t-67 -103q-14 -94 131.5 -128.5t214.5 -68.5q184 -90 175 -265q-6 -104 -68 -179.5t-168 -117.5t-229 -40 q-53 2 -105 10l14 -54q43 -180 126 -182q66 -2 154 65l69 -144q-108 -108 -234 -108q-86 2 -154 60.5t-123 192.5l-160 424l189 88q72 -164 236 -166q92 0 150 36t70 101z" />
<glyph unicode="&#x240;" horiz-adv-x="1093" d="M299 190h51q127 0 212 -134q29 -45 88.5 -167.5t127.5 -135.5l19 -2q42 -1 80 20.5t70 45.5l68 -143q-109 -109 -241 -109q-84 1 -144 51.5t-114 161.5t-109.5 163.5t-133.5 58.5h-298l30 171l648 715h-515l35 196h823l-23 -154z" />
<glyph unicode="&#x241;" horiz-adv-x="1071" d="M1019 812q-31 -210 -146.5 -347.5t-293.5 -179.5l-56 -285h-247l84 477l99 -2q122 0 201 80t107.5 236.5t26.5 253.5q-2 103 -48.5 161.5t-134.5 61.5q-89 4 -154 -52.5t-88 -160.5l-232 -1q20 189 158.5 308t328.5 115q140 -4 239 -74.5t144 -195t28 -275.5z" />
<glyph unicode="&#x242;" horiz-adv-x="989" d="M443 462q157 3 213 138q35 86 24 175q-8 65 -47 100t-103 35q-77 2 -129.5 -55.5t-70.5 -158.5l-235 -1q9 117 69.5 211.5t160.5 146t221 50.5q184 -4 286 -113t88 -297q-12 -154 -104 -246t-242 -117l-63 -330h-237l80 464z" />
<glyph unicode="&#x243;" horiz-adv-x="1340" d="M115 0l253 1456l447 -1q236 -1 354.5 -102.5t104.5 -281.5q-18 -212 -259 -319q90 -32 139 -117t42 -203q-14 -200 -160.5 -316t-386.5 -116h-534zM476 657l-79 -455l259 -1q117 0 199 62t97 170q14 103 -31 161t-149 62zM508 843l227 -1q122 0 199 58t91 157 q25 187 -189 194l-257 1zM633 347h-651l30 170h651z" />
<glyph unicode="&#x244;" horiz-adv-x="1564" d="M1456 1456l-108 -622h216l-30 -170h-216l-30 -195q-24 -148 -106.5 -261t-211 -173t-279.5 -57q-149 3 -259 66.5t-162 178t-35 259.5l28 182h-221l30 170h220l108 622h245l-108 -622h565l108 622h246zM704 182q138 -4 227.5 75.5t113.5 229.5l28 177h-565l-29 -183 q-11 -90 11 -157t76.5 -103.5t137.5 -38.5z" />
<glyph unicode="&#x245;" horiz-adv-x="1295" d="M738 1136l-552 -1136h-279l759 1456h239l256 -1456h-262z" />
<glyph unicode="&#x246;" horiz-adv-x="1133" d="M964 0h-510l-56 -125h-159l57 125h-257l252 1456h649l50 111h159l-50 -111h111l-36 -204h-165l-179 -402h184l-35 -200h-238l-198 -448h456zM433 850h238l179 402h-347zM383 200l200 450h-184l-84 -450h68z" />
<glyph unicode="&#x247;" horiz-adv-x="1076" d="M492 -22q-89 2 -173 28l-231 -422h-163l271 488q-120 120 -131 311q-4 58 1 117l4 35q31 256 187 414t370 154q44 0 109 -12l200 365h162l-233 -418q67 -57 103 -146.5t37 -195.5q0 -66 -8 -128l-16 -104l-419 -1l-151 -274q42 -16 99 -18q157 -2 289 137l119 -126 q-66 -95 -177.5 -149.5t-248.5 -54.5zM610 911q-206 0 -299 -270l185 1l151 266zM785 663q11 46 8 91q-3 44 -26 86l-108 -199h120zM288 464q-8 -48 -6 -91q2 -44 19 -89l99 181z" />
<glyph unicode="&#x248;" horiz-adv-x="1200" d="M875 1456h246l-174 -1021q-31 -212 -173.5 -336t-351.5 -120q-204 4 -311.5 121t-97.5 316l246 -1q-14 -229 178 -233q100 -4 171.5 63t92.5 189zM1173 647h-651l30 170h651z" />
<glyph unicode="&#x249;" horiz-adv-x="723" d="M571 1082l-199 -1177q-22 -168 -116 -257.5t-245 -87.5q-64 2 -135 19l20 192q46 -11 84 -11q127 0 153 149l201 1173h237zM363 1359q0 58 36 95.5t96 39.5q58 2 96.5 -34.5t38.5 -92.5q0 -57 -37.5 -94t-95.5 -39q-60 0 -97 35.5t-37 89.5zM673 508h-651l30 170h651z " />
<glyph unicode="&#x24a;" horiz-adv-x="1464" d="M1119 -66l-1 -61q7 -98 105 -101q25 0 76 8l-19 -201q-60 -15 -120 -14q-148 2 -227 108t-58 263l16 86q-127 -44 -276 -40q-143 1 -254 64t-175.5 182.5t-74.5 277.5q-9 130 28 322t136 340.5t244.5 229t323.5 79.5q185 -2 321 -63l17 42h197zM1085 1178q-66 91 -247 91 q-181 3 -302 -127.5t-158 -371.5l-14 -92l-9 -111q-6 -178 66 -277t213 -101q236 0 290 90z" />
<glyph unicode="&#x24b;" horiz-adv-x="1214" d="M67 543q20 167 90.5 300.5t174 198t231.5 61.5q172 -4 264 -129l39 109l214 -1l-206 -1201q-17 -142 115 -146l66 6l-14 -165q-65 -12 -113 -10q-140 2 -220.5 90.5t-66.5 226.5l40 210q-121 -117 -277 -113q-156 2 -246 116.5t-97 302.5q-3 63 4 123zM303 522l-5 -72 q-3 -136 43 -205.5t133 -71.5q75 -2 130.5 32.5t100.5 90.5l88 495q-51 113 -182 117q-119 3 -199.5 -92t-108.5 -294z" />
<glyph unicode="&#x24c;" horiz-adv-x="1317" d="M729 561h-280l-97 -561h-246l97 561h-178l35 203h178l120 692l459 -1q237 0 363 -115t109 -316q-11 -139 -92.5 -243t-234.5 -164l215 -602l-1 -15h-263zM484 764l239 -2q128 0 215 68t102 183q15 114 -40 174t-167 64l-264 1z" />
<glyph unicode="&#x24d;" horiz-adv-x="798" d="M813 860q-46 10 -93 10q-156 4 -248 -129l-130 -741h-237l187 1082l225 1l-24 -123q111 147 256 144q33 0 91 -15zM653 464h-651l30 170h651z" />
<glyph unicode="&#x24e;" horiz-adv-x="1395" d="M591 1182h390l177 274h288l-190 -274h199l-24 -137h-268l-360 -522l-90 -523h-249l95 549l-169 496h-282l25 137h210l-93 274h261zM714 768l179 277h-260z" />
<glyph unicode="&#x24f;" horiz-adv-x="1082" d="M448 758h242l151 324h262l-165 -324h130l-23 -135h-176l-411 -816q-132 -249 -349 -246q-52 0 -123 19l20 188l41 -5q155 -4 230 134l63 123l-103 603h-202l24 135h155l-54 324h246zM500 351l127 272h-161z" />
<glyph unicode="&#x250;" horiz-adv-x="1085" d="M406 1084l8 -52l-1 -53q134 125 292 123q91 -1 167 -42.5t116 -114t35 -159.5q-8 -173 -148 -269.5t-375 -96.5l-156 1l-13 -74q-11 -79 24 -130.5t119 -53.5q79 -2 135 38.5t71 108.5l237 1q-7 -100 -71.5 -175.5t-173 -117.5t-221.5 -39q-174 4 -273.5 104.5 t-84.5 267.5l83 507l8 90q3 59 -16 116l2 19zM649 908q-75 1 -139 -35.5t-109 -94.5l-37 -205l113 -1q134 0 214.5 50t91.5 139q9 68 -29.5 106.5t-104.5 40.5z" />
<glyph unicode="&#x251;" horiz-adv-x="1181" d="M1075 1082l-128 -762q-7 -52 -5 -78q2 -52 41 -54h14l13 3l6 -183q-53 -29 -117 -27q-157 4 -186 160q-60 -75 -134 -119t-173 -42q-154 2 -244 111.5t-97 290.5q-3 61 3 121l3 21q21 172 90.5 309.5t171.5 204.5t230 64q173 -4 258 -153l49 133h205zM306 498 q-6 -51 -5 -107q2 -100 46.5 -158t126.5 -60q132 -3 230 136l2 14l78 443q-50 137 -174 141q-121 5 -200 -100.5t-101 -287.5z" />
<glyph unicode="&#x252;" horiz-adv-x="1181" d="M75 -1l126 747q10 58 8 91q-5 52 -42 55h-13l-13 -3l-7 182q53 30 117 28q158 -4 185 -160q132 165 309 163q156 -4 245 -113.5t97 -288.5q2 -62 -4 -122l-3 -21q-37 -272 -166.5 -427.5t-325.5 -150.5q-176 4 -260 152l-48 -132h-205zM844 582q6 51 5 108 q-8 212 -175 217q-130 3 -228 -136l-2 -15l-78 -444q48 -135 173 -139q124 -5 202 101t100 287z" />
<glyph unicode="&#x253;" horiz-adv-x="1129" d="M226 1248q20 153 121 238t254 83q57 0 130 -16l-16 -163l-61 9q-155 4 -188 -156l-54 -266q119 129 287 125q158 -4 246.5 -116t93.5 -307q1 -64 -5 -125l-3 -22q-33 -255 -161.5 -405.5t-321.5 -147.5h-4q-180 4 -272 139l-39 -118h-217zM802 669q0 109 -44.5 171 t-129.5 64q-143 4 -242 -138l-78 -448q44 -136 189 -141q120 -3 197 90.5t99 268.5q8 85 9 133z" />
<glyph unicode="&#x254;" horiz-adv-x="1050" d="M233 359q2 -83 50.5 -133.5t127.5 -52.5q99 -3 171 58t108 178.5t35 264.5q-2 109 -48.5 170.5t-133.5 63.5q-91 2 -155.5 -56.5t-86.5 -156.5l-222 -1q20 184 152 298t322 110q137 -2 233.5 -71.5t139.5 -193t28 -276.5l-1 -11q-30 -266 -182 -421t-374 -149 q-164 4 -273.5 111t-111.5 268h221z" />
<glyph unicode="&#x255;" horiz-adv-x="1072" d="M297 374l81 73q152 129 315 126q124 -5 194 -69q70 -65 65 -172q-7 -159 -143 -257.5t-325 -96.5q-144 4 -244 67l-161 -178l-143 131l179 183q-29 83 -35 168q-10 146 23 289q52 220 196 344.5t342 119.5q175 -4 279 -116t102 -293h-222q0 100 -46 155.5t-128 59.5 q-115 5 -193.5 -81.5t-109.5 -256.5q-22 -124 -26 -196zM500 174q88 0 153 38t73 99q8 71 -65 75q-92 5 -223 -126l-57 -55q47 -31 119 -31z" />
<glyph unicode="&#x256;" horiz-adv-x="1214" d="M67 542q20 164 89.5 297.5t173 200t230.5 63.5q166 -4 258 -123l104 556h238l-285 -1655q-17 -141 115 -145q16 -1 66 5l-14 -165q-65 -12 -113 -10q-141 2 -221.5 90.5t-66.5 226.5l42 217q-120 -124 -282 -120q-99 1 -174.5 52.5t-118 149.5t-46.5 218q-3 59 5 142z M298 449q-7 -124 38.5 -197t135.5 -75q137 -4 237 133l81 465q-47 125 -182 129q-136 4 -219 -120t-91 -335z" />
<glyph unicode="&#x257;" horiz-adv-x="1214" d="M691 0l11 117q-128 -141 -301 -137q-153 4 -242.5 119t-96.5 305q-3 63 3 122l3 21q20 163 89.5 294.5t172.5 198t230 63.5q165 -4 259 -123l48 268q18 152 119.5 237.5t255.5 83.5q56 0 129 -16l-16 -163l-61 9q-160 4 -189 -163l-212 -1236h-202zM297 448v-51 q12 -216 174 -220q138 -4 238 133l81 465q-47 125 -183 129q-137 4 -219.5 -121t-90.5 -335z" />
<glyph unicode="&#x258;" horiz-adv-x="1076" d="M394 -21q-121 3 -220 53.5t-167 150.5l138 127q86 -133 243 -137q117 -3 205.5 71t137.5 221l-694 -1l15 99q41 264 179.5 404.5t346.5 135.5q110 -3 196 -54.5t137.5 -148.5t62.5 -220q15 -206 -57.5 -366.5t-212 -249t-310.5 -85.5zM295 640l450 2q3 124 -44 193.5 t-135 72.5q-97 2 -165.5 -61.5t-100.5 -185.5z" />
<glyph unicode="&#x259;" horiz-adv-x="1061" d="M581 1102q206 -4 319.5 -153.5t91.5 -379.5l-7 -57q-21 -151 -98 -277t-191 -191.5t-245 -62.5q-197 6 -297 140t-74 347l22 143h656q12 131 -41 211.5t-158 83.5q-151 5 -307 -90l-65 160q67 62 169 95t225 31zM465 173q168 -6 271 261h-424q-13 -73 -7 -114 q8 -67 50.5 -106.5t109.5 -40.5z" />
<glyph unicode="&#x25a;" horiz-adv-x="1439" d="M565 1102q165 -4 280 -95t142 -239l227 46l1 -109q6 -189 95 -192l29 -1l29 3l19 -154q-70 -34 -131 -32q-193 0 -214 274l-41 -7l-18 -92q-56 -251 -202.5 -390t-346.5 -134q-201 5 -300 147.5t-78 385.5l5 63l694 145q-14 85 -70 134t-142 51q-155 5 -284 -133 l-119 126q68 98 180.5 151.5t244.5 51.5zM448 173q194 -8 279 262l32 113l-471 -101l-6 -28q-8 -47 -2 -90q8 -70 51.5 -111.5t116.5 -44.5z" />
<glyph unicode="&#x25b;" horiz-adv-x="1096" d="M47 297q10 183 240 266q-61 33 -100.5 87.5t-37.5 126.5q5 154 139.5 241t340.5 83q178 -5 287.5 -94t109.5 -233l-233 1q0 66 -50.5 102t-128.5 36q-89 2 -156 -38t-77 -108q-19 -121 158 -127l209 -1l-31 -173l-180 1q-110 0 -176 -42.5t-75 -116.5q-8 -63 43.5 -102 t143.5 -42q90 -2 161 40.5t85 116.5h238q-9 -107 -74 -185t-175.5 -118t-236.5 -38q-195 4 -313 89t-111 228z" />
<glyph unicode="&#x25c;" horiz-adv-x="1096" d="M326 466l31 173l180 -1q105 3 163 41t67 102q10 63 -41 99t-129 36q-87 2 -150 -37q-61 -38 -76 -103l-238 -1q7 96 67 171t168.5 116.5t229.5 39.5q193 -3 304.5 -85.5t103.5 -222.5q-5 -75 -55 -133t-163 -110q75 -32 116 -93t37 -144q-9 -183 -196 -272 q-137 -65 -305 -62q-119 2 -214 44t-146.5 118.5t-50.5 179.5h233q0 -73 54.5 -114t140.5 -41q100 0 169.5 43t81.5 113q22 136 -174 142z" />
<glyph unicode="&#x25d;" horiz-adv-x="1458" d="M537 638q107 3 164 41.5t66 101.5q10 63 -41 99t-129 36q-87 2 -150 -37q-61 -38 -76 -103l-238 -1q7 95 65.5 169.5t168.5 117t232 40.5q165 -3 266.5 -56.5t128.5 -146.5l252 51l1 -112q6 -186 95 -189l29 -1l28 3l19 -154q-70 -34 -130 -32q-196 0 -212 273l-82 -19 q-37 -63 -88.5 -101t-117.5 -66q75 -33 116 -94t37 -144q-5 -107 -72 -182t-182.5 -115t-246.5 -37q-119 2 -214 44t-146.5 118.5t-50.5 179.5h233q0 -73 54.5 -114t140.5 -41q100 0 169.5 43t81.5 113q22 136 -174 142l-208 1l31 173z" />
<glyph unicode="&#x25e;" horiz-adv-x="1067" d="M983 794q-5 -74 -52 -133t-149 -110q72 -33 107 -95.5t31 -141.5q-6 -106 -69 -181.5t-171 -116t-230 -37.5q-173 4 -270 115.5t-106 311.5q-9 196 54.5 360t188 251.5t290.5 83.5q185 -5 284.5 -87t91.5 -220zM601 916q-121 5 -195.5 -96t-92.5 -277q-10 -83 -7 -154 q11 -223 163 -223q84 0 145.5 42t72.5 115q21 139 -151 141l-90 1l31 175l68 -1q179 5 197 143q7 62 -31 97t-110 37z" />
<glyph unicode="&#x25f;" horiz-adv-x="687" d="M580 1082l-159 -911h174l-29 -171h-174l-11 -88q-21 -171 -114.5 -262.5t-247.5 -89.5q-63 2 -136 19l20 192q46 -11 85 -11q125 0 152 144l15 96h-200l30 171h199l158 911h238z" />
<glyph unicode="&#x260;" horiz-adv-x="1223" d="M70 542q19 161 86.5 291t172.5 201t240 69q170 -4 258 -115l16 88q25 156 125 239t252 81q56 0 131 -16l-16 -163l-61 9q-72 2 -122 -35t-64 -109l-177 -1052q-30 -214 -179 -338.5t-361 -118.5q-114 2 -216 51.5t-164 132.5l126 143q95 -131 248 -135q122 -4 203 65.5 t108 190.5l17 76q-125 -121 -284 -117q-100 1 -177 53t-119.5 149t-48.5 217q-3 62 3 122zM300 448q-3 -126 43 -197t137 -73q135 -5 236 125l85 478q-52 119 -185 123q-120 3 -202 -92t-107 -270z" />
<glyph unicode="&#x261;" horiz-adv-x="1136" d="M70 542q19 162 87.5 293t172.5 200.5t238 67.5q178 -4 269 -131l37 111l216 -1l-179 -1052q-30 -212 -178.5 -337.5t-361.5 -119.5q-114 2 -216 52t-164 132l126 143q95 -131 248 -135q116 -4 199.5 63.5t111.5 192.5l17 76q-125 -121 -284 -117q-152 2 -243.5 115 t-100.5 304q-3 60 5 143zM305 521q-6 -51 -4 -110q2 -106 48 -168t131 -65q135 -5 236 125l85 478q-52 119 -185 123q-120 3 -202 -93t-107 -269z" />
<glyph unicode="&#x262;" horiz-adv-x="1216" d="M1027 158q-67 -84 -199 -131t-302 -44q-135 1 -243.5 63.5t-161.5 171.5t-39 243l22 163q19 140 98.5 250t205 170.5t269.5 57.5q191 -4 302 -100.5t123 -275.5l-234 1q-13 179 -201 183q-127 2 -217 -80t-110 -217l-22 -153q-15 -123 44 -201.5t172 -82.5q148 -5 250 53 l33 159h-233l32 177h473z" />
<glyph unicode="&#x263;" horiz-adv-x="1118" d="M397 -437q-129 2 -204.5 68.5t-68.5 174.5q4 75 73 191l180 275l-269 810h240l182 -578l385 578h265l-567 -842l77 -235q38 -108 32 -184q-9 -122 -99 -191t-226 -67zM499 -126l-6 44l-24 96l-29 -44q-58 -89 -65 -153l-1 -25q4 -45 44 -45t62 36.5t19 90.5z" />
<glyph unicode="&#x264;" horiz-adv-x="1278" d="M1158 801q-20 27 -43.5 50t-59.5 26q-111 9 -240 -191l-58 -85l57 -151q45 -129 39 -220q-7 -117 -90.5 -185t-212.5 -66q-120 2 -191 65t-64 171q6 117 130 285l79 107l-42 112q-64 154 -140 154q-37 -1 -67 -23.5t-55 -46.5l-117 149q129 153 284 149q177 -6 293 -274 l75 96q147 181 300 179q74 -2 138 -38.5t129 -119.5zM643 270q-4 26 -34 105l-23 -32q-53 -71 -60 -119q-8 -58 41 -60q37 0 59 31.5t17 74.5z" />
<glyph unicode="&#x265;" horiz-adv-x="1113" d="M687 120q-136 -145 -307 -141q-152 3 -228 108.5t-57 297.5l116 697h237l-117 -700q-5 -43 -1 -79q10 -122 143 -125q132 -3 236 130l135 774h236l-260 -1498h-236z" />
<glyph unicode="&#x266;" horiz-adv-x="1113" d="M407 963q136 143 306 139q155 -3 229.5 -110t55.5 -296l-116 -696h-237l118 699q5 43 1 80q-13 121 -143 124q-131 4 -236 -129l-135 -774h-237l210 1248q20 152 120 238t255 84q61 -2 130 -17l-16 -163l-60 9q-157 4 -189 -156z" />
<glyph unicode="&#x267;" horiz-adv-x="1113" d="M407 963q136 143 306 139q155 -3 229.5 -110t55.5 -296l-121 -763q-18 -151 -119 -238t-255 -83q-57 0 -130 16l16 163l60 -9q76 -2 124.5 37t62.5 114l127 766q5 43 1 80q-13 121 -143 124q-133 2 -236 -129l-135 -774h-237l210 1248q20 152 120 238t255 84 q61 -2 130 -17l-16 -163l-60 9q-157 4 -189 -156z" />
<glyph unicode="&#x268;" horiz-adv-x="699" d="M358 0h-237l188 1082h237zM343 1359q0 55 36 94t97 41q58 2 96.5 -35.5t38.5 -91.5q0 -57 -37.5 -94t-95.5 -39q-57 -2 -96 34.5t-39 90.5zM655 508h-651l30 170h651z" />
<glyph unicode="&#x269;" horiz-adv-x="622" d="M442 1082l-134 -785q-15 -142 115 -146l66 5l-14 -163q-56 -12 -113 -12q-141 2 -220.5 89.5t-67.5 228.5l131 783h237z" />
<glyph unicode="&#x26a;" horiz-adv-x="714" d="M511 0h-526l35 195h142l120 691h-143l34 196h526l-35 -196h-145l-120 -691h146z" />
<glyph unicode="&#x26b;" horiz-adv-x="761" d="M385 0h-237l267 1536h237zM770 931q-12 -119 -76.5 -189t-158.5 -70q-24 0 -46.5 7t-76 37.5t-79.5 40t-55 8.5q-79 -3 -106 -104l-149 8q10 114 75 189.5t161 73.5q48 -1 123 -45.5t109 -48.5l25 -1q81 3 109 105z" />
<glyph unicode="&#x26c;" horiz-adv-x="959" d="M715 739h236l-32 -180h-235l-97 -559h-238l98 559l-98 1q-131 1 -205.5 73t-68.5 188q6 132 105 208t243 74q39 0 109 -13l84 446h237zM368 740l108 -1l12 77q5 45 -13.5 77t-69.5 32q-42 0 -75.5 -29.5t-39.5 -70.5t17.5 -62t60.5 -23z" />
<glyph unicode="&#x26d;" horiz-adv-x="668" d="M583 1536l-285 -1655q-15 -141 115 -145q16 -1 66 5l-14 -165q-58 -12 -113 -11q-140 2 -220 90t-68 228l281 1653h238z" />
<glyph unicode="&#x26e;" horiz-adv-x="1210" d="M456 1082h694l-28 -166l-446 -480q166 -27 252.5 -143.5t72.5 -289.5q-11 -135 -86 -235t-199.5 -153.5t-268.5 -50.5q-180 2 -294.5 93t-137.5 261l233 -1q25 -154 212 -158q123 -2 208 68.5t100 184.5q16 127 -46 191.5t-186 68.5l-125 1l32 183l389 431h-409 l-155 -887h-237l267 1536h237z" />
<glyph unicode="&#x26f;" horiz-adv-x="1739" d="M999 -20q-99 2 -168.5 45t-96.5 120q-148 -170 -347 -166q-158 4 -233.5 108.5t-56.5 292.5l118 702h237l-118 -704q-5 -44 -1 -81q13 -118 149 -121q78 0 143 46t88 117l3 20l125 723h237l-118 -701q-5 -44 0 -80q13 -121 146 -124q134 -4 224 119l137 786h236 l-188 -1082h-221l21 114q-132 -138 -316 -134z" />
<glyph unicode="&#x270;" horiz-adv-x="1739" d="M1207 -416l101 523q-129 -131 -309 -127q-95 2 -166 43.5t-99 121.5q-148 -170 -347 -166q-158 4 -233.5 108.5t-56.5 292.5l118 702h237l-118 -704q-5 -45 -1 -81q13 -118 149 -121q78 0 143 46t88 117l3 20l125 723h237l-118 -701q-5 -43 0 -80q13 -121 146 -124 q134 -4 224 119l137 786h236l-260 -1498h-236z" />
<glyph unicode="&#x271;" horiz-adv-x="1739" d="M1385 703q5 44 1 81q-16 117 -148 120q-147 4 -232 -161l-3 -22l-124 -721h-238l117 700q5 43 1 80q-16 120 -147 123q-132 4 -222 -118l-137 -785h-237l187 1082l222 1l-21 -115q132 138 319 134q101 -2 169 -45.5t93 -120.5q150 170 344 166q158 -4 234.5 -108.5 t57.5 -292.5l-131 -818q-18 -150 -118 -237t-256 -85q-71 2 -130 17l16 163q40 -8 60 -8q75 -2 124 36.5t63 113.5z" />
<glyph unicode="&#x272;" horiz-adv-x="1204" d="M-102 -268q160 -4 189 162l204 1188l222 1l-24 -127q141 150 321 146q152 -3 225 -110t54 -293l-116 -699h-238l118 702q5 43 2 80q-13 119 -143 122q-131 3 -237 -132l-149 -889q-18 -153 -119.5 -238.5t-255.5 -83.5q-68 2 -128 17l15 163z" />
<glyph unicode="&#x273;" horiz-adv-x="1204" d="M918 -435q-141 2 -220 91t-67 227l132 819q5 43 1 80q-13 119 -142 122q-135 2 -237 -133l-135 -771h-237l187 1082l223 1l-24 -127q139 150 321 146q156 -4 227 -112.5t52 -290.5l-135 -818q-15 -142 115 -146l67 6l-15 -165q-58 -11 -113 -11z" />
<glyph unicode="&#x274;" horiz-adv-x="1132" d="M251 0h-234l188 1082h241l280 -717l125 717h234l-188 -1082h-241l-280 718z" />
<glyph unicode="&#x275;" horiz-adv-x="1135" d="M70 544q18 158 95.5 288.5t199 202t268.5 67.5q139 -4 238.5 -75t145 -197t29.5 -276l-2 -22q-20 -159 -98 -288t-199.5 -199t-267.5 -66q-200 5 -312.5 145.5t-102.5 358.5l3 40zM490 173q210 -7 307 285l-498 -1q-8 -131 42.5 -206t148.5 -78zM621 908 q-205 7 -305 -281l497 1q8 125 -44 201t-148 79z" />
<glyph unicode="&#x276;" horiz-adv-x="1662" d="M1458 448h-452l-45 -256h537l-34 -192h-647l-260 -18h-57q-138 2 -236.5 73.5t-143.5 196t-29 275.5l2 16q34 258 190.5 410.5t376.5 150.5q85 -1 169 -11t168 -11h656l-34 -193h-536l-44 -247h453zM510 177q41 -2 207 8l135 711l-138 13l-62 2q-126 0 -211 -97 t-112 -286q-6 -54 -4 -114q2 -107 49.5 -170t135.5 -67z" />
<glyph unicode="&#x277;" horiz-adv-x="1642" d="M84 485q22 186 131.5 326t289 216.5t386.5 73.5q195 -2 349 -78.5t227 -211.5t53 -311q-17 -154 -82.5 -277t-164.5 -184.5t-224 -58.5q-107 2 -182.5 61.5t-99.5 160.5q-133 -230 -345 -223q-121 3 -202.5 69.5t-116.5 181.5t-19 255zM884 907q-157 3 -285.5 -54 t-204.5 -169t-78 -288l1 -35q11 -182 131 -189q179 -9 231 282l33 217h245l-29 -192q-8 -69 -5 -124q5 -179 132 -182q88 -3 148 78.5t81 248.5q23 192 -83.5 297.5t-316.5 109.5z" />
<glyph unicode="&#x278;" horiz-adv-x="1209" d="M394 -7q-169 41 -253 184t-63 350l2 22q27 221 158 364.5t334 177.5l83 445h237l-84 -447q169 -43 253 -188t64 -347l-2 -22q-24 -217 -153.5 -361.5t-339.5 -179.5l-76 -407h-238zM309 431q-4 -169 108 -234l132 689q-213 -102 -238 -400zM888 553l6 92q0 170 -109 237 l-132 -687q195 90 233 346z" />
<glyph unicode="&#x279;" horiz-adv-x="708" d="M18 -22q-33 0 -91 15l27 228q58 -10 92 -10q159 -1 249 128l130 743h237l-188 -1082h-225l23 121q-105 -147 -254 -143z" />
<glyph unicode="&#x27a;" horiz-adv-x="708" d="M-46 221q58 -10 92 -10q159 -1 249 128l208 1197h238l-267 -1536h-225l23 121q-105 -146 -254 -144q-37 2 -92 16z" />
<glyph unicode="&#x27b;" horiz-adv-x="795" d="M-46 221q58 -10 92 -10q158 -1 249 128l130 743h237l-206 -1201q-15 -142 115 -146l66 6l-14 -165q-67 -12 -114 -10q-138 2 -218.5 88t-68.5 229l45 232q-112 -140 -249 -137q-34 0 -92 15z" />
<glyph unicode="&#x27c;" horiz-adv-x="708" d="M724 860q-46 10 -93 10q-156 4 -248 -129l-202 -1157h-238l260 1498l225 1l-24 -123q111 147 256 144q33 0 91 -15z" />
<glyph unicode="&#x27d;" horiz-adv-x="708" d="M730 860q-46 10 -93 10q-158 1 -248 -129l-148 -860q-17 -142 115 -146l66 6l-14 -165q-67 -12 -114 -10q-141 2 -220 90.5t-67 226.5l202 1199l225 1l-24 -123q111 147 256 144q33 0 91 -15z" />
<glyph unicode="&#x27e;" horiz-adv-x="608" d="M16 0l129 781q18 151 119.5 238.5t255.5 85.5q62 -2 131 -17l-16 -163l-60 9q-78 2 -127.5 -39.5t-62.5 -118.5l-132 -776h-237z" />
<glyph unicode="&#x27f;" horiz-adv-x="607" d="M63 -416l205 1200q15 142 -114 146l-65 -5l14 164q55 12 113 12q139 -2 218.5 -90t67.5 -229l-202 -1198h-237z" />
<glyph unicode="&#x280;" horiz-adv-x="1114" d="M630 1081q175 -5 282.5 -97t96.5 -239q-14 -210 -251 -312l165 -433h-232l-156 397h-224l-70 -397h-237l188 1082zM341 577l218 -1q89 2 146.5 47.5t67.5 114.5q11 65 -28.5 105t-118.5 45l-230 1z" />
<glyph unicode="&#x281;" horiz-adv-x="1114" d="M4 0l188 1082h237l-69 -398h210l295 398h260l-334 -443q78 -45 117.5 -120t34.5 -166q-10 -159 -139 -256t-336 -97h-464zM329 504l-54 -312l203 -1q92 2 155.5 49.5t73.5 118.5q11 60 -25 99.5t-110 44.5z" />
<glyph unicode="&#x282;" horiz-adv-x="1035" d="M664 301q17 98 -122.5 135.5t-197.5 62.5q-205 87 -198 267q7 150 135 244t307 92q170 -2 277.5 -96t105.5 -250l-235 1q2 74 -39.5 117t-116.5 45q-80 0 -136.5 -39t-67.5 -103q-14 -89 117.5 -124t184.5 -55q229 -85 219 -283q-8 -143 -124.5 -234t-299.5 -101l-40 -1 q-133 2 -241 55l-29 -146q-19 -140 114 -144l66 6l-14 -165q-57 -14 -101 -12q-129 2 -204.5 91t-62.5 226l74 451l225 1q2 -87 50.5 -132t135.5 -47q89 0 147.5 36.5t70.5 101.5z" />
<glyph unicode="&#x283;" horiz-adv-x="829" d="M417 -63q-25 -180 -137 -278.5t-284 -96.5q-66 2 -141 19l26 190q48 -11 89 -11q86 -1 140.5 48t68.5 134l209 1242q22 174 132 275.5t289 99.5q58 0 141 -19l-26 -190q-46 10 -90 10q-85 1 -139 -46t-68 -130z" />
<glyph unicode="&#x284;" horiz-adv-x="829" d="M417 -63q-25 -180 -137 -278.5t-284 -96.5q-66 2 -141 19l26 190q48 -11 89 -11q86 -1 140.5 48t68.5 134l209 1242q22 174 132 275.5t289 99.5q58 0 141 -19l-26 -190q-46 10 -90 10q-85 1 -139 -46t-68 -130zM632 0h-651l30 170h651z" />
<glyph unicode="&#x285;" horiz-adv-x="829" d="M311 730q18 161 -127 169q-29 2 -94 -6l11 192q73 16 126 16q162 -2 248.5 -105t70.5 -267l-131 -794q-9 -73 21 -119.5t107 -49.5q28 -1 91 7l-8 -193q-73 -16 -128 -16q-161 2 -247.5 104t-70.5 268z" />
<glyph unicode="&#x286;" horiz-adv-x="989" d="M773 -266l-136 -135l-117 141q-110 -180 -331 -176q-132 2 -213 74.5t-77 189.5q6 131 98 206t230 73q59 -2 126 -17l193 1094q22 174 132 275.5t289 99.5q55 -2 142 -19l-27 -190q-44 10 -89 10q-85 1 -139.5 -46.5t-68.5 -129.5l-211 -1227zM198 -264q50 0 83 30.5 t44 84.5l9 55q-54 21 -86 20q-48 0 -84 -29.5t-41 -70.5q-6 -38 15 -63.5t60 -26.5z" />
<glyph unicode="&#x287;" horiz-adv-x="671" d="M31 442h185l103 606q3 25 1 46q-6 63 -80 66q-36 2 -84 -8l17 190q71 23 148 21q123 -2 185 -84t49 -219l-101 -618h173l-32 -179h-172l-46 -263h-237l46 263h-186z" />
<glyph unicode="&#x288;" horiz-adv-x="694" d="M553 1345l-46 -263h185l-31 -180h-185l-175 -1021q-17 -141 115 -145q15 -1 65 5l-14 -165q-60 -13 -112 -11q-140 2 -220 90t-68 228l171 1019h-173l32 180h172l46 263h238z" />
<glyph unicode="&#x289;" horiz-adv-x="1312" d="M1259 481h-194l-83 -481h-223l22 106q-124 -130 -308 -126q-153 2 -231.5 110t-59.5 292l13 99h-194l30 170h193l75 431h237l-75 -431h396l75 431h237l-75 -431h195zM543 178q157 -4 253 125l32 178h-395l-15 -102q-4 -37 -1 -72q7 -124 126 -129z" />
<glyph unicode="&#x28a;" horiz-adv-x="1235" d="M543 172q137 -2 227.5 73.5t109.5 200.5q6 43 2 84.5t-28.5 137.5t-27.5 128t-1 64q8 115 102 176.5t288 67.5l-21 -191q-90 -6 -120.5 -60.5t-17.5 -137.5q5 -37 30.5 -153t19.5 -174q-13 -131 -89 -223.5t-204 -140.5t-283 -45l-46 2q-214 15 -323.5 119t-91.5 274 q7 65 33.5 122t57.5 111.5t57.5 109t33.5 114.5q8 64 -51 75l-36 5l20 191q163 -6 241.5 -65.5t69.5 -163.5q-4 -47 -20.5 -91.5t-69.5 -140.5t-67 -133.5t-20 -77.5q-19 -117 42.5 -186.5t182.5 -71.5z" />
<glyph unicode="&#x28b;" horiz-adv-x="1096" d="M468 -21q-196 6 -292.5 128.5t-73.5 327.5l109 647h237l-108 -650q-5 -45 -3 -90q2 -77 39 -120t108 -46q198 -7 238 256l51 331l2 44q0 78 -68 81q-26 2 -91 -12l-12 184q129 42 215 39q89 -3 138 -55.5t56 -149.5q3 -56 -3 -113l-54 -359q-33 -216 -160.5 -331.5 t-327.5 -111.5z" />
<glyph unicode="&#x28c;" horiz-adv-x="993" d="M522 769l-354 -769h-254l553 1082h205l179 -1082h-236z" />
<glyph unicode="&#x28d;" horiz-adv-x="1483" d="M163 0h-238l473 1082h196l84 -680l2 -94l47 116l311 658h196l100 -1082h-225l-31 720l2 60l-29 -83l-325 -697h-179l-83 709l1 61l-21 -69z" />
<glyph unicode="&#x28e;" horiz-adv-x="979" d="M505 730l-340 -730h-262l639 1263q134 262 355 259q54 -2 123 -20l-20 -188l-42 4q-86 3 -142 -34.5t-95 -112.5l-57 -110l182 -1061h-247z" />
<glyph unicode="&#x28f;" horiz-adv-x="1059" d="M511 568l347 513h275l-539 -740l-59 -341h-236l66 378l-268 703h246z" />
<glyph unicode="&#x290;" horiz-adv-x="1145" d="M311 194h547l-52 -313q-17 -139 115 -143q16 -1 67 5l-14 -165q-54 -13 -99 -13q-121 2 -182.5 89t-47.5 229l16 117h-686l30 171l648 715h-515l35 196h823l-29 -165z" />
<glyph unicode="&#x291;" horiz-adv-x="1252" d="M311 194l110 1l125 154q115 137 208 193t186 53q110 -4 171 -71t55 -175q-7 -152 -131.5 -250.5t-314.5 -98.5h-221l-190 -227l-142 122l93 105h-285l30 171l648 715h-515l35 196h823l-29 -165zM909 418q-88 7 -216 -164l-49 -61h94q91 3 154 43t71 105q11 73 -54 77z " />
<glyph unicode="&#x292;" horiz-adv-x="1139" d="M389 -437q-191 4 -301 107.5t-124 287.5l233 -1q10 -89 61 -142t144 -55q119 -4 205.5 64.5t102.5 183.5q16 128 -45 194t-187 70l-152 1l31 182l418 432h-597l34 195h879l-27 -166l-466 -479l11 -1q170 -21 260 -137.5t75 -294.5q-17 -203 -173 -324t-382 -117z" />
<glyph unicode="&#x293;" horiz-adv-x="1160" d="M367 -435q-183 4 -299 86.5t-111 227.5q6 127 109 205t246 76q198 -4 383 -166l13 41q18 105 -41.5 168.5t-185.5 68.5l-152 1l31 182l418 432h-597l34 195h879l-27 -166l-466 -479l13 -2q170 -19 261 -139t70 -297q-11 -92 -66 -181l102 -117l-146 -137l-87 102 q-166 -105 -381 -101zM385 -241q105 0 209 58q-150 161 -279 158q-50 0 -86 -26t-43 -70q-10 -56 40 -88t159 -32z" />
<glyph unicode="&#x294;" horiz-adv-x="1050" d="M1018 903q-31 -215 -146.5 -353.5t-295.5 -176.5l-71 -373h-242l97 555l108 -2q122 0 203 87t108 258q21 133 24 192q7 130 -40 200.5t-141 72.5q-88 2 -152 -50t-84 -134l-224 -1q11 107 78.5 195.5t173 137.5t218.5 46q138 -2 235 -72.5t140.5 -194.5t25.5 -277z" />
<glyph unicode="&#x295;" horiz-adv-x="1050" d="M393 375q-114 36 -183 132t-81 231q-8 85 2 163l13 98q35 261 186.5 412t370.5 146q177 -4 280 -117.5t101 -291.5h-222q0 97 -45.5 154t-128.5 61q-121 5 -199.5 -88t-104 -271t-23.5 -241q3 -98 40 -149t100 -57l157 -2l-97 -555h-237z" />
<glyph unicode="&#x296;" horiz-adv-x="1050" d="M706 1161q113 -36 182.5 -131.5t82.5 -231.5q12 -118 -22 -304.5t-134 -316.5q-158 -204 -416 -198q-173 4 -278.5 116t-101.5 293h221q0 -98 46.5 -154.5t128.5 -60.5q117 -5 195 82.5t105.5 258.5t26.5 239v20q-11 190 -142 206l-157 2l97 554h238z" />
<glyph unicode="&#x297;" horiz-adv-x="1050" d="M410 -242q85 -2 150.5 48t85.5 135l224 2q-12 -107 -78.5 -195t-172 -138t-218.5 -47q-139 4 -236.5 73.5t-141.5 195t-24 274.5l74 451q39 255 189.5 402.5t365.5 142.5q177 -4 280 -117.5t101 -291.5h-222q0 95 -45 153t-129 62q-117 5 -194.5 -82t-107.5 -262 l-75 -459q-7 -54 -7 -114q0 -108 46.5 -169.5t134.5 -63.5z" />
<glyph unicode="&#x298;" horiz-adv-x="1382" d="M709 868q59 2 99 -36t40 -96t-38.5 -97.5t-99.5 -41.5q-55 -2 -96.5 34t-41.5 97t38.5 99.5t98.5 40.5zM599 -20q-142 3 -249.5 68t-167.5 188.5t-68 280.5q-7 125 22.5 292t105 304.5t180.5 224.5q173 142 400 138q216 -4 344.5 -149t140.5 -392q6 -124 -22.5 -284.5 t-98 -295t-172.5 -224.5q-178 -156 -415 -151zM1054 767l9 106v74q-15 309 -254 320q-177 5 -291.5 -138.5t-145.5 -385.5l-12 -94l-4 -65q-7 -189 59 -291t196 -106q173 -5 285.5 130t147.5 380z" />
<glyph unicode="&#x299;" horiz-adv-x="1142" d="M34 0l188 1082l414 -1q148 -4 246 -47q164 -73 155 -243q-10 -160 -218 -241q84 -25 132.5 -86t46.5 -147q-5 -148 -121.5 -231t-320.5 -86h-522zM352 461l-47 -269l244 -1q97 3 152.5 40t64.5 102q10 57 -25.5 90.5t-117.5 36.5zM381 635l182 -1q212 0 234 130 q9 58 -29.5 89.5t-138.5 34.5l-203 1z" />
<glyph unicode="&#x29a;" horiz-adv-x="1067" d="M594 1101q196 -3 296 -147.5t78 -393.5q-17 -180 -88.5 -314.5t-185 -201.5t-257.5 -64q-115 2 -207 40.5t-142 110t-44 167.5q5 90 58.5 156t163.5 109q-57 35 -89.5 90.5t-29.5 124.5q3 102 61 175.5t160.5 112t225.5 35.5zM578 465l-79 1q-93 0 -149.5 -40.5 t-65.5 -117.5q-8 -59 30.5 -97.5t111.5 -45.5l16 -1q133 -5 208.5 116.5t87.5 348.5q7 140 -35.5 212.5t-127.5 72.5q-79 0 -134.5 -39.5t-64.5 -107.5q-17 -121 131 -126h88z" />
<glyph unicode="&#x29b;" horiz-adv-x="1267" d="M1006 159q-68 -85 -200.5 -132t-302.5 -44q-137 1 -246 64t-161.5 172t-37.5 242l20 149q30 224 190.5 359.5t385.5 133.5q201 0 314 -95q95 173 275 171q51 0 117 -16l-16 -163l-61 9q-76 2 -124.5 -38t-62.5 -114l-21 -129l-229 -1q-9 93 -59.5 137t-144.5 46 q-127 2 -216.5 -81t-108.5 -216l-22 -153q-15 -123 43 -201.5t173 -82.5q146 -4 250 53l32 159h-232l31 177h472z" />
<glyph unicode="&#x29c;" horiz-adv-x="1150" d="M907 0h-238l76 437h-406l-76 -437h-238l188 1082h238l-79 -451h407l78 451h238z" />
<glyph unicode="&#x29d;" horiz-adv-x="923" d="M600 105h211l-32 -179l-202 1l-12 -57q-77 -311 -373 -308q-131 2 -213 74.5t-78 191.5q4 128 96.5 203t231.5 75l134 -1l169 977h238zM566 1359q0 55 36 94t97 41q59 2 97.5 -35.5t38.5 -91.5q0 -57 -38.5 -95t-95.5 -38q-57 -2 -96 34.5t-39 90.5zM197 -264 q100 -4 124 113l12 77h-80q-55 -5 -88.5 -32t-40.5 -68q-6 -38 14.5 -63.5t58.5 -26.5z" />
<glyph unicode="&#x29e;" horiz-adv-x="1047" d="M568 618l136 120l59 344h237l-260 -1497h-237l146 833l-84 -86l-344 -332h-303l480 461l-315 621h256z" />
<glyph unicode="&#x29f;" horiz-adv-x="889" d="M283 192h491l-34 -192h-727l188 1082h237z" />
<glyph unicode="&#x2a0;" horiz-adv-x="1214" d="M67 543q34 260 166 412.5t330 147.5q161 -4 255 -115l16 88q25 157 126.5 239.5t251.5 80.5q65 -2 129 -16l-16 -163l-60 9q-72 2 -122.5 -35t-64.5 -109l-258 -1498h-237l98 509q-121 -117 -277 -113q-156 2 -246 116.5t-97 302.5q-3 63 4 123zM304 522l-5 -72 q-7 -128 39.5 -201.5t135.5 -75.5q75 -2 130.5 32.5t100.5 90.5l88 495q-51 113 -182 117q-122 3 -203 -97t-102 -268z" />
<glyph unicode="&#x2a1;" horiz-adv-x="1050" d="M730 140h-200l-25 -140h-242l25 140h-209l30 170h208l43 245l108 -2q122 0 203 87t108 258q21 133 24 192q7 133 -39.5 202t-141.5 71q-88 2 -152 -50t-84 -134l-224 -1q11 107 78.5 195.5t173 137.5t218.5 46q138 -2 235 -72.5t140.5 -194.5t25.5 -277l-13 -97 q-31 -226 -148 -366t-299 -176l-18 -66l206 2z" />
<glyph unicode="&#x2a2;" horiz-adv-x="1051" d="M393 375q-114 36 -183 132t-81 231q-8 85 2 163l13 98q35 261 186.5 412t370.5 146q177 -4 280 -117.5t101 -291.5h-222q0 97 -45.5 154t-128.5 61q-121 5 -199.5 -88t-104 -271t-23.5 -241q3 -98 40 -149t100 -57l157 -2l-97 -555h-237zM792 141h-651l30 170h651z" />
<glyph unicode="&#x2a3;" horiz-adv-x="1927" d="M1228 194h551l-34 -194h-1064l16 112q-127 -136 -296 -132q-98 1 -174 53.5t-118 150t-48 220.5q-3 62 3 121l2 17q34 258 166.5 412t328.5 149q164 -4 257 -123l104 556h238l-79 -454h831l-29 -165zM302 521q-6 -51 -6 -110q0 -106 44.5 -169t130.5 -66q137 -4 238 134 l81 465q-47 124 -183 128q-122 3 -201.5 -94t-101.5 -267zM923 173l647 713h-523z" />
<glyph unicode="&#x2a4;" horiz-adv-x="1844" d="M68 542q20 167 90 300t172.5 198.5t228.5 62.5q164 -4 259 -123l104 556h238l-79 -454h716l-28 -166l-465 -478q175 -22 267.5 -140t78.5 -293q-11 -135 -86 -236t-199.5 -155t-271.5 -51q-191 2 -309.5 96t-142.5 262h231q36 -157 232 -162q124 -2 210.5 67.5 t101.5 183.5q16 127 -45.5 192.5t-186.5 69.5l-152 1l32 182l416 432h-433l-154 -887h-212l16 112q-126 -137 -296 -133q-181 3 -270 159q-62 110 -68 262q-3 59 5 142zM298 449q-6 -123 37.5 -196.5t135.5 -75.5q138 -4 238 133l81 465q-47 125 -183 129 q-137 4 -219 -120.5t-90 -334.5z" />
<glyph unicode="&#x2a5;" horiz-adv-x="2168" d="M1228 194l110 1l139 170l60 66q162 169 319 163q112 -4 172.5 -70t54.5 -174q-9 -155 -134.5 -252.5t-312.5 -97.5h-221l-189 -227l-142 122l92 105h-495l16 112q-127 -136 -296 -132q-99 1 -175 54t-117.5 152.5t-45.5 217.5q-3 56 5 144q20 163 90 295.5t172.5 198 t229.5 62.5q164 -4 258 -124l104 556h238l-79 -454h831l-29 -165zM303 521l-5 -71v-47q10 -223 174 -227q136 -3 237 134l81 465q-47 124 -183 128q-119 3 -199.5 -93.5t-102.5 -267.5zM1047 886l-124 -712l646 712h-522zM1655 193q94 3 156 45t70 108q9 68 -55 72 q-88 7 -216 -164l-50 -61h95z" />
<glyph unicode="&#x2a6;" horiz-adv-x="1465" d="M547 1345l-47 -263h364l109 17l41 1q171 -2 276.5 -95.5t103.5 -248.5l-234 1q2 74 -40 117t-118 45q-79 0 -135 -38.5t-67 -103.5q-14 -88 112 -121.5t165 -47.5q254 -88 243 -294q-8 -151 -138.5 -234.5t-324.5 -79.5l-493 1q-122 7 -180 95.5t-44 240.5l92 565h-173 l32 180h172l46 263h238zM1087 307q19 95 -129 133t-210 68q-190 90 -174 260q7 65 52 137l-156 -3l-97 -566l-3 -47q0 -81 73 -86l423 -3q198 0 221 107z" />
<glyph unicode="&#x2a7;" horiz-adv-x="1148" d="M547 1345l-47 -263h193l16 116q26 168 135.5 266t282.5 96q62 -2 142 -20l-26 -190q-46 10 -90 10q-85 1 -139 -46t-68 -130l-210 -1248q-25 -178 -136.5 -277.5t-282.5 -97.5q-57 2 -139 18l22 193q53 -12 89 -12q173 -2 214 189l10 47q-75 -15 -142 -13q-129 2 -191 86 t-45 248l97 585h-173l32 180h172l46 263h238zM447 183h43l42 4l130 715h-192l-99 -586l-3 -50q0 -80 79 -83z" />
<glyph unicode="&#x2a8;" horiz-adv-x="1559" d="M641 902h-171l-99 -586l-2 -45q0 -85 71 -88q38 -2 91 23l52 26q-14 72 -16 144t6 145l4 29q36 259 186.5 408.5t367.5 144.5q175 -4 279 -117.5t102 -292.5h-222q0 97 -46 154t-129 61q-134 5 -215 -108.5t-108 -369.5l-4 -49l83 61q185 133 334 130q110 -2 175.5 -67 t61.5 -173q-3 -101 -65 -182t-171 -127t-232 -44q-186 2 -295 106l-55 -31q-142 -76 -259 -73q-123 3 -183 93.5t-46 242.5l96 585h-173l32 180h172l46 263h238l-46 -263h172zM990 174q90 0 154 38t72 99q8 70 -64 74q-92 2 -232 -117l-64 -50q48 -44 134 -44z" />
<glyph unicode="&#x2a9;" horiz-adv-x="1705" d="M99 0l157 902h-161l32 180h160l16 116q26 168 135.5 266t282.5 96q61 -2 141 -20l-26 -190q-44 10 -89 10q-86 1 -140 -47t-67 -130l-16 -101l503 1l-30 -120q135 142 306 138q123 -3 194.5 -77t85.5 -208q8 -78 -1 -157l-116 -726q-18 -151 -118.5 -237t-254.5 -84 q-57 0 -130 16l16 163l60 -9q76 -2 124.5 37t62.5 114l120 729q5 43 4 85q-2 72 -37 112.5t-103 43.5q-133 4 -235 -129l-135 -774h-238l157 902h-266l-157 -902h-237z" />
<glyph unicode="&#x2aa;" horiz-adv-x="1365" d="M325 313q91 -69 200.5 -109.5t224.5 -40.5q102 0 163.5 36.5t72.5 100.5q17 99 -121.5 136.5t-197.5 62.5q-205 87 -198 266q5 101 66 178.5t163 119.5t213 39q176 -5 280.5 -99t102.5 -247l-235 1q2 75 -40 117.5t-118 44.5q-77 2 -134 -37t-68 -105 q-14 -88 116.5 -123.5t164.5 -47.5q251 -88 240 -291q-5 -100 -65.5 -176t-170.5 -118.5t-240 -42.5q-246 2 -452 112l-22 -90h-239l267 1536h235z" />
<glyph unicode="&#x2ab;" horiz-adv-x="1302" d="M564 194h591l-34 -194h-1090l267 1536h237l-79 -454h833l-29 -165zM422 886l-115 -661l633 661h-518z" />
<glyph unicode="&#x2ac;" horiz-adv-x="947" d="M727 1107l131 349h180l-263 -585h-140l-52 361l-179 -361h-141l-60 585h167l9 -344l166 344h136zM576 236l131 349h180l-263 -585h-140l-51 361l-180 -361h-141l-60 585h167l9 -344l166 344h136z" />
<glyph unicode="&#x2ad;" horiz-adv-x="968" d="M922 872h-176l76 438h-440l-76 -438h-176l101 583h792zM771 0h-176l76 437h-440l-76 -437h-176l101 582h792z" />
<glyph unicode="&#x2ae;" horiz-adv-x="1273" d="M821 113q-125 -138 -302 -134q-133 2 -207.5 95.5t-77.5 265.5q-1 55 5 108l46 303q17 158 -128 162l-71 -7l16 180q60 15 125 13q151 -4 228.5 -100t63.5 -250l-42 -304l-5 -84q-4 -81 28 -131t96 -52q161 -7 252 153l131 751h237l-260 -1498h-238z" />
<glyph unicode="&#x2af;" horiz-adv-x="1335" d="M799 113q-125 -138 -300 -134q-136 2 -211.5 97.5t-75.5 262.5q0 55 7 109l21 124h-2l32 211q17 143 -116 147l-65 -5l14 164q58 12 113 11q139 -2 219 -88.5t68 -229.5l-47 -337l-5 -84q-4 -81 28 -131t96 -52q160 -7 252 151l130 753h238l-206 -1201q-17 -142 114 -146 l67 6l-14 -165q-67 -12 -114 -10q-138 2 -218.5 88t-68.5 229z" />
<glyph unicode="&#x2b0;" horiz-adv-x="846" d="M409 1352q89 113 207 113q114 0 171 -81t45 -225l-83 -507h-192l74 458l4 61q4 126 -92 129q-85 2 -148 -89l-97 -559h-193l206 1185h193z" />
<glyph unicode="&#x2b1;" horiz-adv-x="846" d="M409 1352q88 115 206 115q132 -2 187 -108q40 -78 30 -200l-83 -507h-192l74 458l4 61q4 125 -92 128q-86 2 -148 -88l-97 -559h-193l151 903q16 137 68.5 196t142.5 59q59 0 157 -20l-18 -181q-40 12 -65 11q-70 0 -91 -82z" />
<glyph unicode="&#x2b2;" horiz-adv-x="489" d="M520 1456l-138 -823q-19 -150 -92 -227t-193 -77q-39 0 -104 15l16 165q37 -8 54 -8q101 0 124 132l140 823h193zM343 1662q0 48 31.5 79t79.5 33q48 1 80.5 -29t32.5 -79q0 -48 -31 -78t-79 -32t-81 28.5t-33 77.5z" />
<glyph unicode="&#x2b3;" horiz-adv-x="563" d="M636 1253q-46 23 -92 23q-87 2 -150 -79l-96 -545h-193l139 800l144 1l3 -114q89 129 195 129q25 1 72 -9z" />
<glyph unicode="&#x2b4;" horiz-adv-x="563" d="M74 851q46 -23 92 -23q85 -2 150 81l96 543h193l-139 -800l-144 -1l-3 115q-89 -129 -196 -129q-30 -2 -71 8z" />
<glyph unicode="&#x2b5;" horiz-adv-x="640" d="M556 347q-85 -15 -135 -14q-142 3 -154 159q-4 44 1 89l32 162q-82 -103 -178 -106q-36 0 -70 8l22 206q46 -23 92 -23q85 -2 150 81l96 543h193l-148 -855v-28q3 -43 48 -46l17 -1l51 7z" />
<glyph unicode="&#x2b6;" horiz-adv-x="867" d="M105 652l139 800h192l-45 -257h139l197 257h235l-241 -307q101 -81 95 -216q-5 -123 -105.5 -200.5t-242.5 -77.5zM363 1028l-37 -209l128 -1q71 3 117 32.5t54 81.5q14 90 -99 95z" />
<glyph unicode="&#x2b7;" horiz-adv-x="1122" d="M387 1452l7 -503l-2 -16l4 14l228 505h150l53 -503l-3 -12l192 515h209l-339 -800h-175l-59 474l-226 -474h-176l-60 800h197z" />
<glyph unicode="&#x2b8;" horiz-adv-x="822" d="M465 947l242 505h220l-464 -921q-94 -203 -270 -203q-36 0 -99 15l16 157l46 -2q54 1 86 26t57 71l29 57l-131 800h208z" />
<glyph unicode="&#x2b9;" horiz-adv-x="402" d="M302 1562h231l-254 -350h-145z" />
<glyph unicode="&#x2ba;" horiz-adv-x="727" d="M302 1562h231l-254 -350h-145zM627 1562h231l-254 -350h-145z" />
<glyph unicode="&#x2bb;" horiz-adv-x="465" d="M406 1574l125 -82q-112 -155 -138 -309l-33 -191h-215l29 179q40 243 232 403z" />
<glyph unicode="&#x2bc;" horiz-adv-x="441" d="M257 1024l-119 79q106 139 134 268l30 165h208l-22 -136q-37 -226 -231 -376z" />
<glyph unicode="&#x2bd;" horiz-adv-x="465" d="M248 1573h211l-31 -192q-11 -80 -2 -156q8 -77 34 -153l-148 -78q-94 118 -102 286q-3 54 5 102z" />
<glyph unicode="&#x2be;" horiz-adv-x="316" d="M155 1214q45 7 78 34.5t40 75.5q10 80 -78 95l7 95q77 -6 127 -58.5t48 -132.5q-4 -88 -65.5 -142t-165.5 -61z" />
<glyph unicode="&#x2bf;" horiz-adv-x="316" d="M343 1121q-84 9 -128 59t-33 127q12 87 78 145.5t159 64.5l-20 -99q-104 -16 -111 -106q-2 -39 18.5 -64.5t58.5 -30.5z" />
<glyph unicode="&#x2c0;" horiz-adv-x="752" d="M398 1030q175 3 209 250l18 129l6 75q2 72 -26.5 114t-86.5 43q-109 2 -150 -123l-181 -1q14 131 105.5 211.5t229.5 78.5q155 -4 236.5 -115t63.5 -281l-17 -132q-41 -325 -298 -396l-46 -232h-197l67 380z" />
<glyph unicode="&#x2c1;" horiz-adv-x="752" d="M703 1516q-4 57 -29.5 90t-87.5 35q-162 6 -194 -233l-20 -152l-4 -57q-5 -72 20.5 -116t82.5 -49l93 -2l-67 -381h-196l47 235q-77 31 -121 103t-49 173q-5 91 21.5 265.5t128 276.5t253.5 103h13q128 -4 205.5 -82.5t79.5 -209.5z" />
<glyph unicode="&#x2c2;" horiz-adv-x="847" d="M423 975l-77 -18l46 -11l419 -169l-32 -181l-672 289l29 163l772 289l-29 -196z" />
<glyph unicode="&#x2c3;" horiz-adv-x="847" d="M567 946l50 11l-72 19l-393 160l35 201l669 -288l-28 -164l-770 -288l32 180z" />
<glyph unicode="&#x2c4;" horiz-adv-x="821" d="M234 579h-198l410 743h160l151 -743h-177l-83 448v65l-27 -66z" />
<glyph unicode="&#x2c5;" horiz-adv-x="821" d="M443 876l4 -67l24 64l240 449h173l-409 -743h-157l-151 743h194z" />
<glyph unicode="&#x2c6;" horiz-adv-x="978" d="M927 1262v-17l-185 3l-117 155l-173 -154l-193 -4l-1 18l301 274h136z" />
<glyph unicode="&#x2c7;" horiz-adv-x="926" d="M578 1383l169 153l209 4v-16l-308 -276h-146l-233 277v16l196 -4z" />
<glyph unicode="&#x2c8;" horiz-adv-x="289" d="M315 1145h-163l73 421h164z" />
<glyph unicode="&#x2c9;" horiz-adv-x="968" d="M926 1292h-669l26 158h668z" />
<glyph unicode="&#x2ca;" horiz-adv-x="619" d="M398 1536h285l-316 -303h-206z" />
<glyph unicode="&#x2cb;" horiz-adv-x="612" d="M604 1233h-181l-215 303h254z" />
<glyph unicode="&#x2cc;" horiz-adv-x="289" d="M29 -510h-164l73 416h163z" />
<glyph unicode="&#x2cd;" horiz-adv-x="832" d="M576 -317h-669l26 158h668z" />
<glyph unicode="&#x2ce;" horiz-adv-x="612" d="M328 -366h-181l-215 303h254z" />
<glyph unicode="&#x2cf;" horiz-adv-x="619" d="M122 -63h285l-316 -303h-206z" />
<glyph unicode="&#x2d0;" horiz-adv-x="495" d="M485 1081l-181 -242h-22l-100 243zM159 242l22 1l101 -243h-291z" />
<glyph unicode="&#x2d1;" horiz-adv-x="495" d="M485 1081l-181 -242h-22l-100 243z" />
<glyph unicode="&#x2d2;" horiz-adv-x="317" d="M-13 237q45 7 78 34.5t40 75.5q10 80 -78 95l7 95q77 -6 127 -58.5t48 -132.5q-4 -88 -65.5 -142t-165.5 -61z" />
<glyph unicode="&#x2d3;" horiz-adv-x="316" d="M186 143q-78 6 -128.5 58t-48.5 130q2 89 66.5 144.5t164.5 62.5l-9 -95q-46 -8 -78.5 -36.5t-38.5 -76.5q-10 -77 78 -91z" />
<glyph unicode="&#x2d4;" horiz-adv-x="591" d="M159 321l38 215h166l-38 -215h131l-28 -159h-427l28 159h130z" />
<glyph unicode="&#x2d5;" horiz-adv-x="591" d="M43 397l28 158h424l-27 -158h-131l-41 -235h-163l42 235h-132z" />
<glyph unicode="&#x2d6;" horiz-adv-x="591" d="M179 434l26 148h166l-26 -148h131l-28 -158h-130l-27 -148h-165l26 148h-131l27 158h131z" />
<glyph unicode="&#x2d7;" horiz-adv-x="592" d="M496 434l-28 -158h-467l28 158h467z" />
<glyph unicode="&#x2d8;" horiz-adv-x="875" d="M876 1511q-10 -133 -103 -210t-228 -73q-132 2 -211.5 78.5t-79.5 204.5l176 -1q-5 -140 115 -140q67 0 105 39t50 100z" />
<glyph unicode="&#x2d9;" horiz-adv-x="517" d="M258 1365q0 56 35.5 91.5t90.5 37.5t92 -32.5t37 -88.5q0 -57 -35.5 -91t-90.5 -36q-54 -2 -91.5 32.5t-37.5 86.5z" />
<glyph unicode="&#x2da;" horiz-adv-x="679" d="M250 1362q0 90 66.5 153.5t159.5 63.5q82 0 143 -58.5t61 -142.5q0 -89 -66 -151.5t-159 -62.5q-87 0 -146 58t-59 140zM357 1364q-6 -40 19 -73t68 -33q50 0 86.5 36t42.5 82q6 43 -18.5 75t-67.5 32q-50 0 -87 -36.5t-43 -82.5z" />
<glyph unicode="&#x2db;" horiz-adv-x="581" d="M292 -3l-47 -31q-131 -86 -138 -172q-5 -57 51 -60q27 -1 88 22l12 -144q-69 -43 -154 -41q-87 0 -139.5 54.5t-50.5 138.5q3 179 267 297z" />
<glyph unicode="&#x2dc;" horiz-adv-x="964" d="M969 1513q-12 -119 -76.5 -189t-158.5 -70q-24 0 -46.5 7t-76 37.5t-79.5 40t-55 8.5q-79 -3 -106 -104l-149 8q10 114 75 189.5t161 73.5q48 -1 123 -45.5t109 -48.5l25 -1q81 3 109 105z" />
</font>
</defs>
</svg>
